  0
SECTION
  2
HEADER
  9
$ACADVER
  1
AC1004
  9
$ANGBASE
 50
0.000000
  9
$ANGDIR
 70
     0
  9
$ATTDIA
 70
     0
  9
$ATTMODE
 70
     1
  9
$ATTREQ
 70
     1
  9
$AUNITS
 70
     0
  9
$AUPREC
 70
     0
  9
$AXISMODE
 70
     0
  9
$AXISUNIT
 10
0.000000
 20
0.000000
  9
$BLIPMODE
 70
     1
  9
$CECOLOR
 62
   256
  9
$CELTYPE
  6
BYLAYER
  9
$CHAMFERA
 40
0.000000
  9
$CHAMFERB
 40
0.000000
  9
$CLAYER
  8
0
  9
$COORDS
 70
     0
  9
$DIMALT
 70
     0
  9
$DIMALTD
 70
     2
  9
$DIMALTF
 40
25.400000
  9
$DIMAPOST
  1

  9
$DIMASO
 70
     1
  9
$DIMASZ
 40
0.153877
  9
$DIMBLK
  1

  9
$DIMBLK1
  1

  9
$DIMBLK2
  1

  9
$DIMCEN
 40
9.000000E-02
  9
$DIMDLE
 40
0.000000
  9
$DIMDLI
 40
0.380000
  9
$DIMEXE
 40
0.150000
  9
$DIMEXO
 40
0.100000
  9
$DIMLFAC
 40
1.000000
  9
$DIMLIM
 70
     0
  9
$DIMPOST
  1

  9
$DIMRND
 40
0.000000
  9
$DIMSCALE
 40
1.000000
  9
$DIMSE1
 70
     0
  9
$DIMSE2
 70
     0
  9
$DIMSHO
 70
     0
  9
$DIMTAD
 70
     0
  9
$DIMTIH
 70
     0
  9
$DIMTM
 40
0.000000
  9
$DIMTOH
 70
     1
  9
$DIMTOL
 70
     0
  9
$DIMTP
 40
0.000000
  9
$DIMTSZ
 40
0.000000
  9
$DIMTXT
 40
0.125000
  9
$DIMZIN
 70
     0
  9
$DRAGMODE
 70
     1
  9
$DWGCODEPAGE
  3
ansi_1252
  9
$ELEVATION
 40
0.000000
  9
$EXTMAX
 10
11.148553
 20
0.916976
 30
0.000000
  9
$EXTMIN
 10
-5.311446
 20
-10.208024
 30
0.000000
  9
$FASTZOOM
 70
     1
  9
$FILLETRAD
 40
6.250000E-02
  9
$FILLMODE
 70
     1
  9
$GRIDMODE
 70
     0
  9
$GRIDUNIT
 10
0.000000
 20
0.000000
  9
$INSBASE
 10
0.000000
 20
0.000000
 30
0.000000
  9
$LIMCHECK
 70
     0
  9
$LIMMAX
 10
11.148553
 20
0.916976
  9
$LIMMIN
 10
-5.311446
 20
-10.208024
  9
$LTSCALE
 40
1.000000
  9
$LUNITS
 70
     2
  9
$LUPREC
 70
     3
  9
$MEASUREMENT
 70
     0
  9
$MENU
  1
ACAD
  9
$MIRRTEXT
 70
     0
  9
$ORTHOMODE
 70
     0
  9
$OSMODE
 70
     0
  9
$PDMODE
 70
     0
  9
$PDSIZE
 40
0.000000
  9
$PLINEWID
 40
0.000000
  9
$PROXYGRAPHICS
 70
     0
  9
$QTEXTMODE
 70
     0
  9
$REGENMODE
 70
     1
  9
$SKETCHINC
 40
0.100000
  9
$SKPOLY
 70
     0
  9
$SNAPANG
 50
0.000000
  9
$SNAPBASE
 10
0.000000
 20
0.000000
  9
$SNAPISOPAIR
 70
     0
  9
$SNAPMODE
 70
     0
  9
$SNAPSTYLE
 70
     0
  9
$SNAPUNIT
 10
1.000000
 20
1.000000
  9
$SPLFRAME
 70
     0
  9
$SPLINESEGS
 70
     8
  9
$TDCREATE
 40
2452564.677419
  9
$TDINDWG
 40
0.000000
  9
$TDUPDATE
 40
2452564.677419
  9
$TDUSRTIMER
 40
0.000000
  9
$TEXTSIZE
 40
0.125000
  9
$TEXTSTYLE
  7
STANDARD
  9
$THICKNESS
 40
0.000000
  9
$TRACEWID
 40
5.000000E-02
  9
$USERI1
 70
     0
  9
$USERI2
 70
     0
  9
$USERI3
 70
     0
  9
$USERI4
 70
     0
  9
$USERI5
 70
     0
  9
$USERR1
 40
0.000000
  9
$USERR2
 40
0.000000
  9
$USERR3
 40
0.000000
  9
$USERR4
 40
0.000000
  9
$USERR5
 40
0.000000
  9
$USRTIMER
 70
     1
  9
$VIEWCTR
 10
2.918553
 20
-4.645524
  9
$VIEWDIR
 10
0.000000
 20
0.000000
 30
1.000000
  9
$VIEWSIZE
 40
11.125000
  0
ENDSEC
  0
SECTION
  2
TABLES
  0
TABLE
  2
LTYPE
 70
     4
  0
LTYPE
  2
SOLID
  3
Solid
 70
    64
 72
    65
 73
     0
 40
0.000000
  0
LTYPE
  2
CENTERLINE
  3
Centerline
 70
    64
 72
    65
 73
     4
 40
1.000000
 49
0.750000
 49
-6.250000E-02
 49
0.125000
 49
-6.250000E-02
  0
LTYPE
  2
CONSTRUCTION
  3
Construction
 70
    64
 72
    65
 73
     2
 40
4.000000E-02
 49
1.000000E-02
 49
-3.000000E-02
  0
LTYPE
  2
GAP
  3
Gap
 70
    64
 72
    65
 73
     3
 40
100.060000
 49
0.000000
 49
-6.000000E-02
 49
100.000000
  0
ENDTAB
  0
TABLE
  2
LAYER
 70
     2
  0
LAYER
  2
Layer0$C$L0
 70
     0
  6
SOLID
 62
     2
  0
LAYER
  2
Layer5$C$L5
 70
     0
  6
SOLID
 62
     2
  0
ENDTAB
  0
TABLE
  2
STYLE
 70
     2
  0
STYLE
  2
STANDARD
  3
txt
  4

 40
0.000000
 41
1.000000
 42
0.125000
 50
0.000000
 70
     0
 71
     0
  0
STYLE
  2
CASLON
  3
caslon
  4

 40
0.000000
 41
1.000000
 42
0.125000
 50
0.000000
 70
     0
 71
     0
  0
ENDTAB
  0
TABLE
  2
DIMSTYLE
 70
     2
  0
DIMSTYLE
  2
DIM0
 70
     0
  3

  4

  5

  6

  7

 40
1.000000
 41
0.153877
 42
0.100000
 43
0.380000
 44
0.150000
 45
0.000000
 46
0.000000
 47
0.000000
 48
0.000000
140
0.125000
141
9.000000E-02
142
0.000000
143
1.000000
144
1.000000
145
0.000000
146
1.000000
147
6.250000E-02
 71
     0
 72
     0
 73
     1
 74
     1
 75
     0
 76
     0
 77
     0
 78
     0
170
     0
171
     0
172
     0
173
     0
174
     0
175
     0
176
     0
177
     0
178
     0
270
     2
271
     2
272
     2
273
     2
274
     0
275
     1
280
     0
281
     0
282
     0
283
     1
284
     0
285
     0
286
     0
287
     3
288
     0
  0
DIMSTYLE
  2
DIM1
 70
     1
  3

  4

  5

  6

  7

 40
1.000000
 41
0.153877
 42
0.100000
 43
0.380000
 44
0.150000
 45
0.000000
 46
0.000000
 47
0.000000
 48
0.000000
140
0.156000
141
9.000000E-02
142
0.000000
143
1.000000
144
1.000000
145
0.000000
146
1.000000
147
7.800000E-02
 71
     0
 72
     0
 73
     1
 74
     1
 75
     0
 76
     0
 77
     0
 78
     0
170
     0
171
     0
172
     0
173
     0
174
     0
175
     0
176
     0
177
     0
178
     0
270
     2
271
     2
272
     2
273
     2
274
     0
275
     1
280
     0
281
     0
282
     0
283
     1
284
     0
285
     0
286
     0
287
     3
288
     0
  0
ENDTAB
  0
ENDSEC
  0
SECTION
  2
BLOCKS
  0
BLOCK
  8
Layer0$C$L0
  2
*D0
 70
     1
 10
0.000000
 20
0.000000
  0
SOLID
  8
Layer0$C$L0
 62
     0
 10
-2.879111
 20
-6.289728
 11
-2.939979
 21
-6.289728
 12
-2.909545
 22
-6.442731
 13
-2.909545
 23
-6.442731
  0
LINE
  8
Layer0$C$L0
 10
-2.909545
 20
-6.442731
 11
-2.909545
 21
-5.261615
  0
SOLID
  8
Layer0$C$L0
 62
     0
 10
-2.939979
 20
-4.585734
 11
-2.879111
 21
-4.585734
 12
-2.909545
 22
-4.432731
 13
-2.909545
 23
-4.432731
  0
LINE
  8
Layer0$C$L0
 10
-2.909545
 20
-4.432731
 11
-2.909545
 21
-5.011615
  0
LINE
  8
Layer0$C$L0
  6
GAP
 10
-2.422214
 20
-6.442731
 11
-3.059545
 21
-6.442731
  0
LINE
  8
Layer0$C$L0
  6
GAP
 10
-2.457914
 20
-4.432731
 11
-3.059545
 21
-4.432731
  0
TEXT
  8
Layer0$C$L0
 10
-3.142832
 20
-5.199115
 40
0.125000
  1
2.01
 72
     5
 11
-2.676257
 21
-5.199115
  0
ENDBLK
  8
Layer0$C$L0
  0
BLOCK
  8
Layer0$C$L0
  2
*D1
 70
     1
 10
0.000000
 20
0.000000
  0
SOLID
  8
Layer0$C$L0
 62
     0
 10
1.699504
 20
-6.289728
 11
1.638636
 21
-6.289728
 12
1.669070
 22
-6.442731
 13
1.669070
 23
-6.442731
  0
LINE
  8
Layer0$C$L0
 10
1.669070
 20
-6.442731
 11
1.669070
 21
-5.157656
  0
SOLID
  8
Layer0$C$L0
 62
     0
 10
1.638636
 20
-4.657734
 11
1.699504
 21
-4.657734
 12
1.669070
 22
-4.504731
 13
1.669070
 23
-4.504731
  0
LINE
  8
Layer0$C$L0
 10
1.669070
 20
-4.504731
 11
1.669070
 21
-4.907656
  0
LINE
  8
Layer0$C$L0
  6
GAP
 10
0.366005
 20
-6.442731
 11
1.819070
 21
-6.442731
  0
LINE
  8
Layer0$C$L0
  6
GAP
 10
0.386853
 20
-4.504731
 11
1.819070
 21
-4.504731
  0
TEXT
  8
Layer0$C$L0
 10
1.435782
 20
-5.095156
 40
0.125000
  1
1.94
 72
     5
 11
1.902358
 21
-5.095156
  0
ENDBLK
  8
Layer0$C$L0
  0
BLOCK
  8
Layer0$C$L0
  2
*D2
 70
     1
 10
0.000000
 20
0.000000
  0
SOLID
  8
Layer0$C$L0
 62
     0
 10
1.152674
 20
-6.289728
 11
1.091806
 21
-6.289728
 12
1.122240
 22
-6.442731
 13
1.122240
 23
-6.442731
  0
LINE
  8
Layer0$C$L0
 10
1.122240
 20
-6.442731
 11
1.122240
 21
-5.850991
  0
SOLID
  8
Layer0$C$L0
 62
     0
 10
1.091806
 20
-5.365734
 11
1.152674
 21
-5.365734
 12
1.122240
 22
-5.212731
 13
1.122240
 23
-5.212731
  0
LINE
  8
Layer0$C$L0
 10
1.122240
 20
-5.212731
 11
1.122240
 21
-5.538991
  0
LINE
  8
Layer0$C$L0
  6
GAP
 10
0.397714
 20
-6.442731
 11
1.272240
 21
-6.442731
  0
LINE
  8
Layer0$C$L0
  6
GAP
 10
6.386391E-02
 20
-5.212731
 11
1.272240
 21
-5.212731
  0
TEXT
  8
Layer0$C$L0
 10
0.831097
 20
-5.772991
 40
0.156000
  1
1.23
 72
     5
 11
1.413383
 21
-5.772991
  0
ENDBLK
  8
Layer0$C$L0
  0
BLOCK
  8
Layer0$C$L0
  2
*D3
 70
     1
 10
0.000000
 20
0.000000
  0
SOLID
  8
Layer0$C$L0
 62
     0
 10
-1.768120
 20
-4.251570
 11
-1.768120
 21
-4.190702
 12
-1.921122
 22
-4.221136
 13
-1.921122
 23
-4.221136
  0
LINE
  8
Layer0$C$L0
 10
-1.921122
 20
-4.221136
 11
-1.486647
 21
-4.221136
  0
SOLID
  8
Layer0$C$L0
 62
     0
 10
-0.439125
 20
-4.190702
 11
-0.439125
 21
-4.251570
 12
-0.286122
 22
-4.221136
 13
-0.286122
 23
-4.221136
  0
LINE
  8
Layer0$C$L0
 10
-0.286122
 20
-4.221136
 11
-0.748361
 21
-4.221136
  0
LINE
  8
Layer0$C$L0
  6
GAP
 10
-1.921122
 20
-2.898373
 11
-1.921122
 21
-4.371136
  0
LINE
  8
Layer0$C$L0
  6
GAP
 10
-0.286122
 20
-2.898373
 11
-0.286122
 21
-4.371136
  0
TEXT
  8
Layer0$C$L0
 10
-1.408647
 20
-4.299136
 40
0.156000
  1
1.64
 72
     5
 11
-0.826361
 21
-4.299136
  0
ENDBLK
  8
Layer0$C$L0
  0
BLOCK
  8
Layer0$C$L0
  2
*D4
 70
     1
 10
0.000000
 20
0.000000
  0
SOLID
  8
Layer0$C$L0
 62
     0
 10
-3.303371E-02
 20
-0.274719
 11
-4.900501E-02
 21
-0.215983
 12
-0.188661
 22
-0.285498
 13
-0.188661
 23
-0.285498
  0
LINE
  8
Layer0$C$L0
 10
-0.188661
 20
-0.285498
 11
1.014232
 21
4.159176E-02
  0
LINE
  8
Layer0$C$L0
 10
1.014232
 20
4.159176E-02
 11
1.164803
 21
4.159176E-02
  0
TEXT
  8
Layer0$C$L0
 10
1.242803
 20
-3.640824E-02
 40
0.125000
  1
.20
 72
     5
 11
1.584378
 21
-3.640824E-02
  0
ENDBLK
  8
Layer0$C$L0
  0
BLOCK
  8
Layer0$C$L0
  2
*D5
 70
     1
 10
0.000000
 20
0.000000
  0
SOLID
  8
Layer0$C$L0
 62
     0
 10
-2.169212
 20
-7.069430
 11
-2.169212
 21
-7.008562
 12
-2.322214
 22
-7.038996
 13
-2.322214
 23
-7.038996
  0
LINE
  8
Layer0$C$L0
 10
-2.322214
 20
-7.038996
 11
-1.446286
 21
-7.038996
  0
SOLID
  8
Layer0$C$L0
 62
     0
 10
0.113002
 20
-7.008562
 11
0.113002
 21
-7.069430
 12
0.266005
 22
-7.038996
 13
0.266005
 23
-7.038996
  0
LINE
  8
Layer0$C$L0
 10
0.266005
 20
-7.038996
 11
-0.708000
 21
-7.038996
  0
LINE
  8
Layer0$C$L0
  6
GAP
 10
-2.322214
 20
-6.542731
 11
-2.322214
 21
-7.188995
  0
LINE
  8
Layer0$C$L0
  6
GAP
 10
0.266005
 20
-6.542731
 11
0.266005
 21
-7.188995
  0
TEXT
  8
Layer0$C$L0
 10
-1.368286
 20
-7.116996
 40
0.156000
  1
2.59
 72
     5
 11
-0.786000
 21
-7.116996
  0
ENDBLK
  8
Layer0$C$L0
  0
BLOCK
  8
Layer0$C$L0
  2
*D6
 70
     1
 10
0.000000
 20
0.000000
  0
SOLID
  8
Layer0$C$L0
 62
     0
 10
0.632158
 20
-6.289728
 11
0.571290
 21
-6.289728
 12
0.601724
 22
-6.442731
 13
0.601724
 23
-6.442731
  0
LINE
  8
Layer0$C$L0
 10
0.601724
 20
-6.442731
 11
0.601724
 21
-6.111249
  0
SOLID
  8
Layer0$C$L0
 62
     0
 10
0.571290
 20
-5.710734
 11
0.632158
 21
-5.710734
 12
0.601724
 22
-5.557731
 13
0.601724
 23
-5.557731
  0
LINE
  8
Layer0$C$L0
 10
0.601724
 20
-5.557731
 11
0.601724
 21
-5.799249
  0
LINE
  8
Layer0$C$L0
  6
GAP
 10
0.393587
 20
-6.442731
 11
0.751724
 21
-6.442731
  0
LINE
  8
Layer0$C$L0
  6
GAP
 10
7.512531E-02
 20
-5.557731
 11
0.751724
 21
-5.557731
  0
TEXT
  8
Layer0$C$L0
 10
0.388581
 20
-6.033249
 40
0.156000
  1
.88
 72
     5
 11
0.814867
 21
-6.033249
  0
ENDBLK
  8
Layer0$C$L0
  0
BLOCK
  8
Layer0$C$L0
  2
*D7
 70
     1
 10
0.000000
 20
0.000000
  0
SOLID
  8
Layer0$C$L0
 62
     0
 10
-3.259351
 20
-2.408998
 11
-3.320219
 21
-2.408998
 12
-3.289785
 22
-2.562000
 13
-3.289785
 23
-2.562000
  0
LINE
  8
Layer0$C$L0
 10
-3.289785
 20
-2.562000
 11
-3.289785
 21
-1.480372
  0
SOLID
  8
Layer0$C$L0
 62
     0
 10
-3.320219
 20
-0.465002
 11
-3.259351
 21
-0.465002
 12
-3.289785
 22
-0.311999
 13
-3.289785
 23
-0.311999
  0
LINE
  8
Layer0$C$L0
 10
-3.289785
 20
-0.311999
 11
-3.289785
 21
-1.168372
  0
LINE
  8
Layer0$C$L0
  6
GAP
 10
-2.205753
 20
-2.562000
 11
-3.439785
 21
-2.562000
  0
LINE
  8
Layer0$C$L0
  6
GAP
 10
-2.217480
 20
-0.311999
 11
-3.439785
 21
-0.311999
  0
TEXT
  8
Layer0$C$L0
 10
-3.580928
 20
-1.402372
 40
0.125000
  1
2.25
 72
     5
 11
-3.114353
 21
-1.402372
  0
ENDBLK
  8
Layer0$C$L0
  0
BLOCK
  8
Layer0$C$L0
  2
*D8
 70
     1
 10
0.000000
 20
0.000000
  0
SOLID
  8
Layer0$C$L0
 62
     0
 10
-4.049256
 20
-2.721998
 11
-4.110124
 21
-2.721998
 12
-4.079690
 22
-2.875000
 13
-4.079690
 23
-2.875000
  0
LINE
  8
Layer0$C$L0
 10
-4.079690
 20
-2.875000
 11
-4.079690
 21
-0.781817
  0
SOLID
  8
Layer0$C$L0
 62
     0
 10
-4.110124
 20
-0.153002
 11
-4.049256
 21
-0.153002
 12
-4.079690
 22
0.000000
 13
-4.079690
 23
0.000000
  0
LINE
  8
Layer0$C$L0
 10
-4.079690
 20
0.000000
 11
-4.079690
 21
-0.469817
  0
LINE
  8
Layer0$C$L0
  6
GAP
 10
-2.499026
 20
-2.875000
 11
-4.229690
 21
-2.875000
  0
LINE
  8
Layer0$C$L0
  6
GAP
 10
-2.499026
 20
0.000000
 11
-4.229690
 21
0.000000
  0
TEXT
  8
Layer0$C$L0
 10
-4.370833
 20
-0.703817
 40
0.125000
  1
2.87
 72
     5
 11
-3.904258
 21
-0.703817
  0
ENDBLK
  8
Layer0$C$L0
  0
BLOCK
  8
Layer0$C$L0
  2
*D9
 70
     1
 10
0.000000
 20
0.000000
  0
SOLID
  8
Layer0$C$L0
 62
     0
 10
-2.246023
 20
-3.250361
 11
-2.246023
 21
-3.189493
 12
-2.399026
 22
-3.219927
 13
-2.399026
 23
-3.219927
  0
SOLID
  8
Layer0$C$L0
 62
     0
 10
-2.074125
 20
-3.189493
 11
-2.074125
 21
-3.250361
 12
-1.921122
 22
-3.219927
 13
-1.921122
 23
-3.219927
  0
LINE
  8
Layer0$C$L0
 10
-2.399026
 20
-3.219927
 11
-1.921122
 21
-3.219927
  0
LINE
  8
Layer0$C$L0
 10
-1.921122
 20
-3.219927
 11
-1.794247
 21
-3.219927
  0
LINE
  8
Layer0$C$L0
  6
GAP
 10
-2.399026
 20
-2.998840
 11
-2.399026
 21
-3.369927
  0
LINE
  8
Layer0$C$L0
  6
GAP
 10
-1.921122
 20
-2.898373
 11
-1.921122
 21
-3.369927
  0
TEXT
  8
Layer0$C$L0
 10
-1.716247
 20
-3.297927
 40
0.125000
  1
.48
 72
     5
 11
-1.374672
 21
-3.297927
  0
ENDBLK
  8
Layer0$C$L0
  0
BLOCK
  8
Layer0$C$L0
  2
*D10
 70
     1
 10
0.000000
 20
0.000000
  0
SOLID
  8
Layer0$C$L0
 62
     0
 10
-3.320855
 20
-3.028002
 11
-3.259987
 21
-3.028002
 12
-3.290421
 22
-2.875000
 13
-3.290421
 23
-2.875000
  0
LINE
  8
Layer0$C$L0
 10
-3.290421
 20
-2.875000
 11
-3.290421
 21
-3.172082
  0
SOLID
  8
Layer0$C$L0
 62
     0
 10
-3.259987
 20
-2.408998
 11
-3.320855
 21
-2.408998
 12
-3.290421
 22
-2.562000
 13
-3.290421
 23
-2.562000
  0
LINE
  8
Layer0$C$L0
 10
-3.290421
 20
-2.562000
 11
-3.290421
 21
-2.162000
  0
LINE
  8
Layer0$C$L0
  6
GAP
 10
-2.499026
 20
-2.875000
 11
-3.440421
 21
-2.875000
  0
LINE
  8
Layer0$C$L0
  6
GAP
 10
-2.205753
 20
-2.562000
 11
-3.440421
 21
-2.562000
  0
TEXT
  8
Layer0$C$L0
 10
-3.503564
 20
-3.406082
 40
0.125000
  1
.31
 72
     5
 11
-3.161989
 21
-3.406082
  0
ENDBLK
  8
Layer0$C$L0
  0
BLOCK
  8
Layer0$C$L0
  2
*D11
 70
     1
 10
0.000000
 20
0.000000
  0
SOLID
  8
Layer0$C$L0
 62
     0
 10
-1.768120
 20
-3.781212
 11
-1.768120
 21
-3.720344
 12
-1.921122
 22
-3.750778
 13
-1.921122
 23
-3.750778
  0
SOLID
  8
Layer0$C$L0
 62
     0
 10
-1.259125
 20
-3.720344
 11
-1.259125
 21
-3.781212
 12
-1.106122
 22
-3.750778
 13
-1.106122
 23
-3.750778
  0
LINE
  8
Layer0$C$L0
 10
-1.921122
 20
-3.750778
 11
-1.106122
 21
-3.750778
  0
LINE
  8
Layer0$C$L0
 10
-1.921122
 20
-3.750778
 11
-2.169415
 21
-3.750778
  0
LINE
  8
Layer0$C$L0
  6
GAP
 10
-1.921122
 20
-2.898373
 11
-1.921122
 21
-3.900778
  0
LINE
  8
Layer0$C$L0
  6
GAP
 10
-1.106122
 20
-2.898373
 11
-1.106122
 21
-3.900778
  0
TEXT
  8
Layer0$C$L0
 10
-2.673701
 20
-3.828778
 40
0.156000
  1
.82
 72
     5
 11
-2.247415
 21
-3.828778
  0
ENDBLK
  8
Layer0$C$L0
  0
BLOCK
  8
Layer0$C$L0
  2
*D12
 70
     1
 10
0.000000
 20
0.000000
  0
SOLID
  8
Layer0$C$L0
 62
     0
 10
5.506765
 20
-6.289728
 11
5.445897
 21
-6.289728
 12
5.476331
 22
-6.442731
 13
5.476331
 23
-6.442731
  0
LINE
  8
Layer0$C$L0
 10
5.476331
 20
-6.442731
 11
5.476331
 21
-6.056984
  0
SOLID
  8
Layer0$C$L0
 62
     0
 10
5.445897
 20
-5.597734
 11
5.506765
 21
-5.597734
 12
5.476331
 22
-5.444731
 13
5.476331
 23
-5.444731
  0
LINE
  8
Layer0$C$L0
 10
5.476331
 20
-5.444731
 11
5.476331
 21
-5.744984
  0
LINE
  8
Layer0$C$L0
  6
GAP
 10
5.124102
 20
-6.442731
 11
5.626331
 21
-6.442731
  0
LINE
  8
Layer0$C$L0
  6
GAP
 10
4.671212
 20
-5.444731
 11
5.626331
 21
-5.444731
  0
TEXT
  8
Layer0$C$L0
 10
5.185188
 20
-5.978984
 40
0.156000
  1
1.00
 72
     5
 11
5.767474
 21
-5.978984
  0
ENDBLK
  8
Layer0$C$L0
  0
BLOCK
  8
Layer0$C$L0
  2
*X0
 70
     1
 10
0.000000
 20
0.000000
  0
LINE
  8
Layer0$C$L0
 10
-2.703670
 20
2.915805
 11
-2.615043
 21
2.915805
  0
LINE
  8
Layer0$C$L0
 10
-2.615043
 20
2.923905
 11
-2.695570
 21
2.923905
  0
LINE
  8
Layer0$C$L0
 10
-2.687470
 20
2.932005
 11
-2.615043
 21
2.932005
  0
LINE
  8
Layer0$C$L0
 10
-2.615043
 20
2.940105
 11
-2.679370
 21
2.940105
  0
LINE
  8
Layer0$C$L0
 10
-2.671270
 20
2.948205
 11
-2.615043
 21
2.948205
  0
LINE
  8
Layer0$C$L0
 10
-2.615043
 20
2.956305
 11
-2.663170
 21
2.956305
  0
LINE
  8
Layer0$C$L0
 10
-2.655070
 20
2.964405
 11
-2.615043
 21
2.964405
  0
LINE
  8
Layer0$C$L0
 10
-2.615043
 20
2.972505
 11
-2.646970
 21
2.972505
  0
LINE
  8
Layer0$C$L0
 10
-2.638870
 20
2.980604
 11
-2.615043
 21
2.980604
  0
LINE
  8
Layer0$C$L0
 10
-2.615043
 20
2.988705
 11
-2.630770
 21
2.988705
  0
LINE
  8
Layer0$C$L0
 10
-2.655543
 20
2.996804
 11
-2.787168
 21
2.996804
  0
LINE
  8
Layer0$C$L0
 10
-2.534043
 20
2.996804
 11
-2.622671
 21
2.996804
  0
LINE
  8
Layer0$C$L0
 10
-2.655543
 20
3.004905
 11
-2.787168
 21
3.004905
  0
LINE
  8
Layer0$C$L0
 10
-2.534043
 20
3.004905
 11
-2.614571
 21
3.004905
  0
LINE
  8
Layer0$C$L0
 10
-2.655543
 20
3.013005
 11
-2.787168
 21
3.013005
  0
LINE
  8
Layer0$C$L0
 10
-2.534043
 20
3.013005
 11
-2.606471
 21
3.013005
  0
LINE
  8
Layer0$C$L0
 10
-2.655543
 20
3.021105
 11
-2.787168
 21
3.021105
  0
LINE
  8
Layer0$C$L0
 10
-2.534043
 20
3.021105
 11
-2.598371
 21
3.021105
  0
LINE
  8
Layer0$C$L0
 10
-2.655543
 20
3.029205
 11
-2.787168
 21
3.029205
  0
LINE
  8
Layer0$C$L0
 10
-2.534043
 20
3.029205
 11
-2.590271
 21
3.029205
  0
LINE
  8
Layer0$C$L0
 10
-2.655543
 20
3.037305
 11
-2.787168
 21
3.037305
  0
LINE
  8
Layer0$C$L0
 10
-2.534043
 20
3.037305
 11
-2.587166
 21
3.037305
  0
LINE
  8
Layer0$C$L0
 10
-2.655543
 20
3.045405
 11
-2.787168
 21
3.045405
  0
LINE
  8
Layer0$C$L0
 10
-2.534043
 20
3.045405
 11
-2.595266
 21
3.045405
  0
LINE
  8
Layer0$C$L0
 10
-2.655543
 20
3.053505
 11
-2.787168
 21
3.053505
  0
LINE
  8
Layer0$C$L0
 10
-2.534043
 20
3.053505
 11
-2.603366
 21
3.053505
  0
LINE
  8
Layer0$C$L0
 10
-2.655543
 20
3.061604
 11
-2.787168
 21
3.061604
  0
LINE
  8
Layer0$C$L0
 10
-2.534043
 20
3.061604
 11
-2.611466
 21
3.061604
  0
LINE
  8
Layer0$C$L0
 10
-2.655543
 20
3.069705
 11
-2.787168
 21
3.069705
  0
LINE
  8
Layer0$C$L0
 10
-2.534043
 20
3.069705
 11
-2.619566
 21
3.069705
  0
LINE
  8
Layer0$C$L0
 10
-2.615043
 20
3.077805
 11
-2.627666
 21
3.077805
  0
LINE
  8
Layer0$C$L0
 10
-2.615043
 20
3.085905
 11
-2.635766
 21
3.085905
  0
LINE
  8
Layer0$C$L0
 10
-2.615043
 20
3.094004
 11
-2.643866
 21
3.094004
  0
LINE
  8
Layer0$C$L0
 10
-2.615043
 20
3.102104
 11
-2.651966
 21
3.102104
  0
LINE
  8
Layer0$C$L0
 10
-2.615043
 20
3.110204
 11
-2.660066
 21
3.110204
  0
LINE
  8
Layer0$C$L0
 10
-2.615043
 20
3.118304
 11
-2.668166
 21
3.118304
  0
LINE
  8
Layer0$C$L0
 10
-2.615043
 20
3.126405
 11
-2.676266
 21
3.126405
  0
LINE
  8
Layer0$C$L0
 10
-2.615043
 20
3.134505
 11
-2.684366
 21
3.134505
  0
LINE
  8
Layer0$C$L0
 10
-2.615043
 20
3.142605
 11
-2.692466
 21
3.142605
  0
LINE
  8
Layer0$C$L0
 10
-2.615043
 20
3.150705
 11
-2.700566
 21
3.150705
  0
ENDBLK
  8
Layer0$C$L0
  0
BLOCK
  8
Layer0$C$L0
  2
REV-LINES
 70
     0
 10
0.000000
 20
0.000000
  0
LINE
  8
Layer0$C$L0
 10
-4.409999
 20
-0.300000
 11
-4.409999
 21
0.000000
  0
LINE
  8
Layer0$C$L0
 10
-0.521999
 20
-0.300000
 11
-0.521999
 21
0.000000
  0
LINE
  8
Layer0$C$L0
 10
-1.029999
 20
-0.300000
 11
-1.029999
 21
0.000000
  0
LINE
  8
Layer0$C$L0
 10
-4.909999
 20
-0.300000
 11
-4.909999
 21
0.000000
  0
LINE
  8
Layer0$C$L0
 10
-4.909999
 20
-0.300000
 11
0.000000
 21
-0.300000
  0
ENDBLK
  8
Layer0$C$L0
  0
BLOCK
  8
Layer0$C$L0
  2
B
 70
     0
 10
0.000000
 20
0.000000
  0
INSERT
  8
Layer0$C$L0
  2
TITLE-BLOCK
 10
1.734723E-18
 20
-1.734723E-18
  0
INSERT
  8
Layer0$C$L0
  2
REV-HEADING
 10
-0.375000
 20
10.187500
  0
LINE
  8
Layer0$C$L0
 10
-15.689000
 20
10.187500
 11
-0.375000
 21
10.187500
  0
LINE
  8
Layer0$C$L0
 10
-15.689000
 20
10.187500
 11
-15.689000
 21
0.375000
  0
LINE
  8
Layer0$C$L0
 10
-0.377001
 20
0.375000
 11
-15.689000
 21
0.375000
  0
LINE
  8
Layer0$C$L0
 10
-0.375000
 20
10.187500
 11
-0.375000
 21
0.375000
  0
ENDBLK
  8
Layer0$C$L0
  0
BLOCK
  8
Layer0$C$L0
  2
TITLE-BLOCK
 70
     0
 10
0.000000
 20
0.000000
  0
TEXT
  8
Layer0$C$L0
 10
-7.958654
 20
2.309340
 40
8.000001E-02
  1
- TOLERANCES: XXXX%%p.0002; XXX%%p.005;
 72
     5
 11
-5.180046
 21
2.309340
  0
INSERT
  8
Layer0$C$L0
  2
*X0
 10
0.000000
 20
0.000000
  0
TEXT
  8
Layer0$C$L0
 62
    91
 10
-0.716206
 20
0.473122
 40
6.000000E-02
  1
OF
 72
     5
 11
-0.612250
 21
0.473122
  0
TEXT
  8
Layer0$C$L0
 62
     3
 10
-0.825683
 20
0.655197
 40
6.000000E-02
  1
SHEET
 72
     5
 11
-0.541726
 21
0.655197
  0
TEXT
  8
Layer0$C$L0
 62
     3
 10
-0.831416
 20
1.155000
 40
6.000000E-02
  1
REV
 72
     5
 11
-0.667460
 21
1.155000
  0
TEXT
  8
Layer0$C$L0
 62
     3
 10
-2.216087
 20
1.155000
 40
5.999999E-02
  1
DWG NO
 41
1.517866
 72
     5
 11
-1.760727
 21
1.155000
  0
TEXT
  8
Layer0$C$L0
 62
     3
 10
-1.866115
 20
0.655000
 40
6.000000E-02
  1
FILE NO
 72
     5
 11
-1.462159
 21
0.655000
  0
TEXT
  8
Layer0$C$L0
 62
     3
 10
-4.804447
 20
0.480000
 40
5.999999E-02
  1
APPD
 41
1.640298
 72
     5
 11
-4.509193
 21
0.480000
  0
TEXT
  8
Layer0$C$L0
 62
     3
 10
-4.804447
 20
0.740000
 40
5.999999E-02
  1
ENGD
 41
1.640298
 72
     5
 11
-4.509193
 21
0.740000
  0
TEXT
  8
Layer0$C$L0
 62
     3
 10
-4.804447
 20
0.990000
 40
5.999999E-02
  1
CHKD
 41
1.640298
 72
     5
 11
-4.509193
 21
0.990000
  0
TEXT
  8
Layer0$C$L0
 62
     3
 10
-4.804447
 20
1.240000
 40
5.999999E-02
  1
DRWN
 41
1.640298
 72
     5
 11
-4.509193
 21
1.240000
  0
TEXT
  8
Layer0$C$L0
 62
     3
 10
-6.430162
 20
1.032216
 40
5.999999E-02
  1
REF OR
 41
1.422781
 72
     5
 11
-6.003328
 21
1.032216
  0
TEXT
  8
Layer0$C$L0
 62
     3
 10
-6.430162
 20
0.942216
 40
5.999999E-02
  1
SIM DWG
 41
1.392476
 72
     5
 11
-5.928871
 21
0.942216
  0
TEXT
  8
Layer0$C$L0
 62
     3
 10
-8.226861
 20
1.035046
 40
6.000000E-02
  1
ASSY DWG 
 72
     5
 11
-7.702905
 21
1.035046
  0
TEXT
  8
Layer0$C$L0
 62
     3
 10
-8.226861
 20
0.945046
 40
6.000000E-02
  1
USED ON
 72
     5
 11
-7.822905
 21
0.945046
  0
TEXT
  8
Layer0$C$L0
 10
-7.958654
 20
2.189340
 40
8.000001E-02
  1
  XX%%p.01; X%%p.04; ANGLES %%pO%%d30'
 72
     5
 11
-5.580046
 21
2.189340
  0
LINE
  8
Layer0$C$L0
 62
     3
 10
-3.001000
 20
1.145000
 11
-4.875000
 21
1.145000
  0
TEXT
  8
Layer0$C$L0
 10
-8.279886
 20
1.799676
 40
8.000001E-02
  1
THIS DRAWING AND ALL INFORMATION THEREON
 72
     5
 11
-5.101278
 21
1.799676
  0
TEXT
  8
Layer0$C$L0
 10
-8.279886
 20
1.679676
 40
8.000001E-02
  1
IS THE PROPERTY OF GOULD, IS CONFIDENTIAL,
 72
     5
 11
-4.941278
 21
1.679676
  0
TEXT
  8
Layer0$C$L0
 10
-8.279886
 20
1.559676
 40
8.000001E-02
  1
MUST NOT BE COPIED OR MADE PUBLIC UNLESS
 72
     5
 11
-5.101278
 21
1.559676
  0
TEXT
  8
Layer0$C$L0
 10
-8.279886
 20
1.439676
 40
8.000001E-02
  1
AUTHORIZED AND IS SUBJECT TO RETURN ON
 72
     5
 11
-5.261278
 21
1.439676
  0
TEXT
  8
Layer0$C$L0
 10
-8.279886
 20
1.319676
 40
8.000001E-02
  1
DEMAND.
 72
     5
 11
-7.741278
 21
1.319676
  0
TEXT
  8
Layer0$C$L0
 10
-7.958654
 20
2.669340
 40
8.000001E-02
  1
- ALL DIMENSIONS ARE IN INCHES
 72
     5
 11
-5.580046
 21
2.669340
  0
TEXT
  8
Layer0$C$L0
 10
-7.958654
 20
2.549340
 40
8.000001E-02
  1
- STAMP OR ETCH DWG. NO. ON PART
 72
     5
 11
-5.420046
 21
2.549340
  0
TEXT
  8
Layer0$C$L0
 10
-7.958654
 20
2.429340
 40
8.000001E-02
  1
- REMOVE ALL BURRS AND SHARP EDGES
 72
     5
 11
-5.260046
 21
2.429340
  0
TEXT
  8
Layer0$C$L0
 10
-7.958654
 20
2.789340
 40
8.000001E-02
  1
NOTES UNLESS OTHERWISE SPECIFIED
 72
     5
 11
-5.420046
 21
2.789340
  0
LINE
  8
Layer0$C$L0
 62
     3
 10
-4.875000
 20
2.025000
 11
-8.375000
 21
2.025000
  0
TEXT
  8
Layer0$C$L0
 62
     3
 10
-4.762554
 20
3.180000
 40
5.999999E-02
  1
MATERIAL
 41
1.324250
 72
     5
 11
-4.206369
 21
3.180000
  0
TEXT
  8
Layer0$C$L0
 62
     3
 10
-4.762554
 20
2.555000
 40
6.000000E-02
  1
FINISH
 72
     5
 11
-4.418598
 21
2.555000
  0
TEXT
  8
Layer0$C$L0
 62
     3
 10
-2.902856
 20
2.319378
 40
5.999999E-02
  1
PRODUCT
 41
1.455825
 72
     5
 11
-2.378759
 21
2.319378
  0
TEXT
  8
Layer0$C$L0
 62
     3
 10
-2.902856
 20
2.229378
 40
5.999999E-02
  1
INFO
 41
1.614240
 72
     5
 11
-2.612293
 21
2.229378
  0
TEXT
  8
Layer0$C$L0
 62
     3
 10
-1.942384
 20
2.080000
 40
6.000000E-02
  1
TITLE
 72
     5
 11
-1.658428
 21
2.080000
  0
TEXT
  8
Layer0$C$L0
 62
     3
 10
-2.779085
 20
0.655000
 40
5.999999E-02
  1
SCALE
 41
1.559812
 72
     5
 11
-2.404730
 21
0.655000
  0
TEXT
  8
Layer0$C$L0
 62
     3
 10
-3.375296
 20
1.490226
 40
6.000000E-02
  1
DATE
 72
     5
 11
-3.151340
 21
1.490226
  0
TEXT
  8
Layer0$C$L0
 62
     3
 10
-4.518412
 20
1.490226
 40
6.000000E-02
  1
SIGNATURES
 72
     5
 11
-3.934456
 21
1.490226
  0
LINE
  8
Layer0$C$L0
 62
     3
 10
-4.875000
 20
3.025000
 11
-8.375000
 21
3.025000
  0
LINE
  8
Layer0$C$L0
 62
     3
 10
-5.749999
 20
1.145000
 11
-5.749999
 21
0.375000
  0
LINE
  8
Layer0$C$L0
 62
     3
 10
-6.624999
 20
0.375000
 11
-6.624999
 21
1.145000
  0
LINE
  8
Layer0$C$L0
 62
     3
 10
-7.499999
 20
1.145000
 11
-7.499999
 21
0.375000
  0
LINE
  8
Layer0$C$L0
 62
     3
 10
-2.025000
 20
0.750000
 11
-2.025000
 21
0.375000
  0
LINE
  8
Layer0$C$L0
 62
     3
 10
-1.025000
 20
1.250000
 11
-1.025000
 21
0.375000
  0
LINE
  8
Layer0$C$L0
 62
     3
 10
-3.501000
 20
1.645000
 11
-3.501000
 21
0.375000
  0
LINE
  8
Layer0$C$L0
 62
     3
 10
-0.375000
 20
2.175000
 11
-3.001000
 21
2.175000
  0
LINE
  8
Layer0$C$L0
 62
     3
 10
-0.375000
 20
2.425000
 11
-3.001000
 21
2.425000
  0
LINE
  8
Layer0$C$L0
 62
     3
 10
-0.375000
 20
1.250000
 11
-3.001000
 21
1.250000
  0
LINE
  8
Layer0$C$L0
 62
     3
 10
-0.375000
 20
0.750000
 11
-3.001000
 21
0.750000
  0
LINE
  8
Layer0$C$L0
 62
     3
 10
-3.001000
 20
2.650000
 11
-4.875000
 21
2.650000
  0
LINE
  8
Layer0$C$L0
 62
     3
 10
-3.001000
 20
1.645000
 11
-4.875000
 21
1.645000
  0
LINE
  8
Layer0$C$L0
 62
     3
 10
-3.001000
 20
1.395000
 11
-4.875000
 21
1.395000
  0
LINE
  8
Layer0$C$L0
 62
     3
 10
-4.875000
 20
1.145000
 11
-8.375000
 21
1.145000
  0
LINE
  8
Layer0$C$L0
 62
     3
 10
-3.001000
 20
0.895000
 11
-8.375000
 21
0.895000
  0
LINE
  8
Layer0$C$L0
 62
     3
 10
-3.001000
 20
0.645000
 11
-8.375000
 21
0.645000
  0
LINE
  8
Layer0$C$L0
 62
     3
 10
-0.375000
 20
3.275000
 11
-8.375000
 21
3.275000
  0
LINE
  8
Layer0$C$L0
 62
     3
 10
-3.001000
 20
3.275000
 11
-3.001000
 21
0.375000
  0
LINE
  8
Layer0$C$L0
 62
     3
 10
-4.875000
 20
3.275000
 11
-4.875000
 21
0.375000
  0
LINE
  8
Layer0$C$L0
 62
     3
 10
-8.375000
 20
3.275000
 11
-8.375000
 21
0.375000
  0
POINT
  8
Layer0$C$L0
 10
-3.001000
 20
3.275000
  0
TEXT
  8
Layer0$C$L0
  7
caslon
 10
-2.427907
 20
2.934468
 40
0.187500
  1
G
 72
     5
 11
-2.289156
 21
2.934468
  0
TEXT
  8
Layer0$C$L0
  7
caslon
 10
-2.283728
 20
2.936035
 40
0.178293
  1
O
 72
     5
 11
-2.158923
 21
2.936035
  0
TEXT
  8
Layer0$C$L0
  7
caslon
 10
-2.165823
 20
2.934452
 40
0.181931
  1
U
 72
     5
 11
-2.023917
 21
2.934452
  0
TEXT
  8
Layer0$C$L0
  7
caslon
 10
-2.024577
 20
2.934465
 40
0.188437
  1
L
 72
     5
 11
-1.911514
 21
2.934465
  0
TEXT
  8
Layer0$C$L0
  7
caslon
 10
-1.895956
 20
2.934010
 40
0.183769
  1
D
 72
     5
 11
-1.759967
 21
2.934010
  0
TEXT
  8
Layer0$C$L0
  7
caslon
 10
-1.633295
 20
2.934118
 40
0.189380
  1
S
 72
     5
 11
-1.568905
 21
2.934118
  0
TEXT
  8
Layer0$C$L0
  7
caslon
 10
-1.529856
 20
2.934470
 40
0.188437
  1
H
 72
     5
 11
-1.382875
 21
2.934470
  0
TEXT
  8
Layer0$C$L0
  7
caslon
 10
-1.381040
 20
2.934451
 40
0.181917
  1
A
 72
     5
 11
-1.231868
 21
2.934451
  0
TEXT
  8
Layer0$C$L0
  7
caslon
 10
-1.274564
 20
2.933919
 40
0.181931
  1
W
 72
     5
 11
-1.048970
 21
2.933919
  0
TEXT
  8
Layer0$C$L0
  7
caslon
 10
-1.080067
 20
2.934469
 40
0.188437
  1
M
 72
     5
 11
-0.891630
 21
2.934469
  0
TEXT
  8
Layer0$C$L0
  7
caslon
 10
-0.910996
 20
2.934453
 40
0.181931
  1
U
 72
     5
 11
-0.769090
 21
2.934453
  0
TEXT
  8
Layer0$C$L0
  7
caslon
 10
-0.776202
 20
2.934460
 40
0.183769
  1
T
 72
     5
 11
-0.618161
 21
2.934460
  0
ARC
  8
Layer0$C$L0
 10
-2.367657
 20
3.072951
 40
4.614548E-02
 50
35.153823
 51
90.090953
  0
ARC
  8
Layer0$C$L0
 10
-2.370540
 20
3.089444
 40
2.948356E-02
 50
83.871356
 51
151.370570
  0
ARC
  8
Layer0$C$L0
 10
-2.279350
 20
3.028280
 40
0.139191
 50
147.253633
 51
212.228908
  0
ARC
  8
Layer0$C$L0
 10
-2.364161
 20
2.978514
 40
4.129739E-02
 50
216.328729
 51
263.159594
  0
ARC
  8
Layer0$C$L0
 10
-2.373145
 20
2.993376
 40
5.632704E-02
 50
273.794225
 51
318.528140
  0
ARC
  8
Layer0$C$L0
 10
-2.228082
 20
3.087025
 40
3.422274E-02
 50
34.413881
 51
152.839362
  0
ARC
  8
Layer0$C$L0
 10
-2.227791
 20
2.968668
 40
3.305112E-02
 50
203.425505
 51
338.897020
  0
ARC
  8
Layer0$C$L0
 10
-2.093472
 20
3.028829
 40
0.180814
 50
155.904873
 51
203.772588
  0
ARC
  8
Layer0$C$L0
 10
-2.354872
 20
3.027275
 40
0.174033
 50
335.802453
 51
387.030320
  0
LINE
  8
Layer0$C$L0
 10
-2.140754
 20
3.113805
 11
-2.140754
 21
2.978257
  0
ARC
  8
Layer0$C$L0
 10
-2.097901
 20
2.980682
 40
4.333316E-02
 50
183.207284
 51
242.330057
  0
LINE
  8
Layer0$C$L0
 10
-1.999835
 20
3.117524
 11
-1.999835
 21
2.942304
  0
LINE
  8
Layer0$C$L0
 10
-1.868833
 20
3.116286
 11
-1.868833
 21
2.939412
  0
ARC
  8
Layer0$C$L0
 10
-1.912450
 20
3.027359
 40
0.127661
 50
318.891833
 51
403.212650
  0
POLYLINE
  8
Layer0$C$L0
 66
     1
 70
     4
  0
VERTEX
  8
Layer0$C$L0
 10
-1.625267
 20
3.077629
 70
    16
  0
VERTEX
  8
Layer0$C$L0
 10
-1.625267
 20
3.077629
 70
     8
  0
VERTEX
  8
Layer0$C$L0
 10
-1.624607
 20
3.073230
 70
     8
  0
VERTEX
  8
Layer0$C$L0
 10
-1.623772
 20
3.068796
 70
     8
  0
VERTEX
  8
Layer0$C$L0
 10
-1.622727
 20
3.064383
 70
     8
  0
VERTEX
  8
Layer0$C$L0
 10
-1.621441
 20
3.060044
 70
     8
  0
VERTEX
  8
Layer0$C$L0
 10
-1.619879
 20
3.055836
 70
     8
  0
VERTEX
  8
Layer0$C$L0
 10
-1.618007
 20
3.051814
 70
     8
  0
VERTEX
  8
Layer0$C$L0
 10
-1.615792
 20
3.048032
 70
     8
  0
VERTEX
  8
Layer0$C$L0
 10
-1.613201
 20
3.044546
 70
     8
  0
VERTEX
  8
Layer0$C$L0
 10
-1.609494
 20
3.040713
 70
     8
  0
VERTEX
  8
Layer0$C$L0
 10
-1.605325
 20
3.037279
 70
     8
  0
VERTEX
  8
Layer0$C$L0
 10
-1.600850
 20
3.034110
 70
     8
  0
VERTEX
  8
Layer0$C$L0
 10
-1.596225
 20
3.031078
 70
     8
  0
VERTEX
  8
Layer0$C$L0
 10
-1.591605
 20
3.028050
 70
     8
  0
VERTEX
  8
Layer0$C$L0
 10
-1.587147
 20
3.024897
 70
     8
  0
VERTEX
  8
Layer0$C$L0
 10
-1.583007
 20
3.021487
 70
     8
  0
VERTEX
  8
Layer0$C$L0
 10
-1.579340
 20
3.017690
 70
     8
  0
VERTEX
  8
Layer0$C$L0
 10
-1.575853
 20
3.012720
 70
     8
  0
VERTEX
  8
Layer0$C$L0
 10
-1.573130
 20
3.007186
 70
     8
  0
VERTEX
  8
Layer0$C$L0
 10
-1.571099
 20
3.001211
 70
     8
  0
VERTEX
  8
Layer0$C$L0
 10
-1.569688
 20
2.994919
 70
     8
  0
VERTEX
  8
Layer0$C$L0
 10
-1.568827
 20
2.988432
 70
     8
  0
VERTEX
  8
Layer0$C$L0
 10
-1.568445
 20
2.981874
 70
     8
  0
VERTEX
  8
Layer0$C$L0
 10
-1.568470
 20
2.975369
 70
     8
  0
VERTEX
  8
Layer0$C$L0
 10
-1.568831
 20
2.969039
 70
     8
  0
VERTEX
  8
Layer0$C$L0
 10
-1.613201
 20
3.044546
 70
    16
  0
VERTEX
  8
Layer0$C$L0
 10
-1.579340
 20
3.017690
 70
    16
  0
VERTEX
  8
Layer0$C$L0
 10
-1.568831
 20
2.969039
 70
    16
  0
SEQEND
  8
Layer0$C$L0
  0
LINE
  8
Layer0$C$L0
 10
-1.505389
 20
3.114604
 11
-1.505389
 21
2.944129
  0
LINE
  8
Layer0$C$L0
 10
-1.422875
 20
3.115772
 11
-1.422875
 21
2.944129
  0
LINE
  8
Layer0$C$L0
 10
-1.320513
 20
3.106041
 11
-1.280424
 21
2.941404
  0
LINE
  8
Layer0$C$L0
 10
-1.248793
 20
3.113866
 11
-1.214442
 21
2.966461
  0
LINE
  8
Layer0$C$L0
 10
-1.189646
 20
3.114387
 11
-1.154608
 21
2.967125
  0
LINE
  8
Layer0$C$L0
 10
-1.054571
 20
3.111849
 11
-1.008869
 21
2.966110
  0
LINE
  8
Layer0$C$L0
 10
-0.948949
 20
3.111849
 11
-0.948949
 21
2.945290
  0
LINE
  8
Layer0$C$L0
 10
-0.885982
 20
3.113372
 11
-0.885982
 21
2.975758
  0
ARC
  8
Layer0$C$L0
 10
-0.846842
 20
2.975896
 40
3.915662E-02
 50
181.687813
 51
235.137732
  0
LINE
  8
Layer0$C$L0
 10
-0.708210
 20
3.115443
 11
-0.708210
 21
2.941617
  0
LINE
  8
Layer5$C$L5
 10
-2.615043
 20
2.913307
 11
-2.615043
 21
2.994307
  0
LINE
  8
Layer5$C$L5
 10
-2.787168
 20
2.994307
 11
-2.655543
 21
2.994307
  0
LINE
  8
Layer5$C$L5
 10
-2.787168
 20
3.075307
 11
-2.655543
 21
3.075307
  0
LINE
  8
Layer5$C$L5
 10
-2.615043
 20
2.994307
 11
-2.534043
 21
2.994307
  0
LINE
  8
Layer5$C$L5
 10
-2.615043
 20
3.075307
 11
-2.534043
 21
3.075307
  0
LINE
  8
Layer5$C$L5
 10
-2.655543
 20
2.994307
 11
-2.655543
 21
3.075307
  0
LINE
  8
Layer5$C$L5
 10
-2.615043
 20
3.075307
 11
-2.615043
 21
3.156307
  0
LINE
  8
Layer5$C$L5
 10
-2.706168
 20
3.156307
 11
-2.615043
 21
3.156307
  0
LINE
  8
Layer5$C$L5
 10
-2.706168
 20
2.913307
 11
-2.615043
 21
2.913307
  0
LINE
  8
Layer5$C$L5
 10
-2.534043
 20
2.994307
 11
-2.534043
 21
3.075307
  0
LINE
  8
Layer5$C$L5
 10
-2.787168
 20
2.994307
 11
-2.787168
 21
3.075307
  0
LINE
  8
Layer0$C$L0
 10
-2.584668
 20
3.034807
 11
-2.706168
 21
3.156307
  0
LINE
  8
Layer0$C$L0
 10
-2.584668
 20
3.034807
 11
-2.706168
 21
2.913307
  0
LINE
  8
Layer0$C$L0
 10
-2.327537
 20
3.006839
 11
-2.327537
 21
2.960365
  0
LINE
  8
Layer0$C$L0
 10
-2.329674
 20
3.098183
 11
-2.322196
 21
3.080021
  0
LINE
  8
Layer0$C$L0
 10
-2.323798
 20
3.104594
 11
-2.322196
 21
3.080021
  0
TEXT
  8
Layer0$C$L0
 10
-2.491285
 20
2.523169
 40
8.000001E-02
  1
NEWBURYPORT,MA 01950
 41
1.166899
 72
     5
 11
-0.717598
 21
2.523169
  0
TEXT
  8
Layer0$C$L0
 10
-2.491285
 20
2.643170
 40
8.000001E-02
  1
374 MERRIMAC STREET
 41
1.231727
 72
     5
 11
-0.717598
 21
2.643170
  0
TEXT
  8
Layer0$C$L0
 10
-2.491285
 20
2.763170
 40
8.000001E-02
  1
GOULD SHAWMUT
 41
1.255812
 72
     5
 11
-1.285705
 21
2.763170
  0
ENDBLK
  8
Layer0$C$L0
  0
BLOCK
  8
Layer0$C$L0
  2
REV-HEADING
 70
     0
 10
0.000000
 20
0.000000
  0
TEXT
  8
Layer0$C$L0
 10
-0.464417
 20
-0.217397
 40
9.000000E-02
  1
APPD
 72
     5
 11
-0.128483
 21
-0.217397
  0
TEXT
  8
Layer0$C$L0
 10
-4.780066
 20
-0.223664
 40
9.000000E-02
  1
REV
 72
     5
 11
-4.534131
 21
-0.223664
  0
TEXT
  8
Layer0$C$L0
 10
-0.953252
 20
-0.217397
 40
9.000000E-02
  1
DATE
 72
     5
 11
-0.617318
 21
-0.217397
  0
TEXT
  8
Layer0$C$L0
 10
-3.334759
 20
-0.198596
 40
9.000000E-02
  1
DESCRIPTION
 72
     5
 11
-2.368824
 21
-0.198596
  0
LINE
  8
Layer0$C$L0
 10
-0.522000
 20
-0.320000
 11
-0.522000
 21
0.000000
  0
LINE
  8
Layer0$C$L0
 10
-1.030000
 20
-0.320000
 11
-1.030000
 21
0.000000
  0
LINE
  8
Layer0$C$L0
 10
-4.410000
 20
-0.320000
 11
-4.410000
 21
0.000000
  0
LINE
  8
Layer0$C$L0
 10
-4.910000
 20
-0.320000
 11
-4.910000
 21
0.000000
  0
LINE
  8
Layer0$C$L0
 10
-4.910000
 20
-0.320000
 11
0.000000
 21
-0.320000
  0
ENDBLK
  8
Layer0$C$L0
  0
BLOCK
  8
Layer0$C$L0
  2
Cadra_attr_0
 70
     2
 10
0.000000
 20
0.000000
  0
POINT
  8
Layer0$C$L0
  6
CONSTRUCTION
 62
    41
 10
-15.750002
 20
10.500000
  0
ATTDEF
  8
Layer0$C$L0
 62
    41
 10
-15.750002
 20
10.500000
 40
0.156000
  1
HP7596  -15.750  10.500 180
  3

  2
3
 70
    11
  0
ENDBLK
  8
Layer0$C$L0
  0
BLOCK
  8
Layer0$C$L0
  2
Cadra_attr_1
 70
     2
 10
0.000000
 20
0.000000
  0
POINT
  8
Layer0$C$L0
  6
CONSTRUCTION
 62
    91
 10
-7.703720E-34
 20
0.345000
  0
ATTDEF
  8
Layer0$C$L0
 62
    91
 10
-7.703720E-34
 20
0.345000
 40
0.156000
  1
HP7550   00.000  00.345  00
  3

  2
1
 70
    11
  0
ENDBLK
  8
Layer0$C$L0
  0
BLOCK
  8
Layer0$C$L0
  2
Cadra_attr_2
 70
     2
 10
0.000000
 20
0.000000
  0
POINT
  8
Layer0$C$L0
  6
CONSTRUCTION
 62
     7
 10
0.000000
 20
0.000000
  0
ATTDEF
  8
Layer0$C$L0
 62
     7
 10
0.000000
 20
0.000000
 40
0.156000
  1
HP7585   00.000  00.000  00
  3

  2
2
 70
    11
  0
ENDBLK
  8
Layer0$C$L0
  0
ENDSEC
  0
SECTION
  2
ENTITIES
  0
TEXT
  8
Layer0$C$L0
 10
9.639058
 20
-0.304740
 40
0.100000
  1
11/91
 72
     5
 11
10.112318
 21
-0.304740
  0
TEXT
  8
Layer0$C$L0
 10
5.849941
 20
-0.304740
 40
0.125000
  1
01
 72
     5
 11
6.066517
 21
-0.304740
  0
TEXT
  8
Layer0$C$L0
 10
6.344174
 20
-0.304740
 40
0.125000
  1
REVISED PER ECO 91-051
 72
     5
 11
9.060749
 21
-0.304740
  0
TEXT
  8
Layer0$C$L0
 10
7.531000
 20
-9.491676
 40
0.100000
  1
11/90
 72
     5
 11
8.004260
 21
-9.491676
  0
TEXT
  8
Layer0$C$L0
 10
7.531000
 20
-8.996765
 40
0.100000
  1
11/90
 72
     5
 11
8.004260
 21
-8.996765
  0
TEXT
  8
Layer0$C$L0
 10
7.530257
 20
-8.737873
 40
0.100000
  1
11/90
 72
     5
 11
8.003517
 21
-8.737873
  0
TEXT
  8
Layer0$C$L0
 10
8.474770
 20
-9.070219
 40
0.187000
  1
05B0365  01
 72
     5
 11
10.481766
 21
-9.070219
  0
TEXT
  8
Layer0$C$L0
 10
9.373093
 20
-3.599534
 40
0.125000
  1
LR69363
 72
     5
 11
10.214668
 21
-3.599534
  0
TEXT
  8
Layer0$C$L0
 10
9.359888
 20
-2.586875
 40
0.125000
  1
LR69363
 72
     5
 11
10.201463
 21
-2.586875
  0
TEXT
  8
Layer0$C$L0
 10
8.290966
 20
-3.590664
 40
0.125000
  1
XCFR2
 72
     5
 11
8.882541
 21
-3.590664
  0
TEXT
  8
Layer0$C$L0
 10
8.204421
 20
-2.588130
 40
0.125000
  1
XCFR2
 72
     5
 11
8.795996
 21
-2.588130
  0
TEXT
  8
Layer0$C$L0
 10
7.083954
 20
-3.609113
 40
0.125000
  1
E73571
 72
     5
 11
7.800530
 21
-3.609113
  0
TEXT
  8
Layer0$C$L0
 10
7.134217
 20
-2.588130
 40
0.125000
  1
E73571
 72
     5
 11
7.850792
 21
-2.588130
  0
TEXT
  8
Layer0$C$L0
 10
9.292054
 20
-1.895371
 40
0.125000
  1
REPORT NO.
 72
     5
 11
10.508630
 21
-1.895371
  0
TEXT
  8
Layer0$C$L0
 10
8.116597
 20
-1.895371
 40
0.125000
  1
GUIDE NO.
 72
     5
 11
9.208173
 21
-1.895371
  0
TEXT
  8
Layer0$C$L0
 10
9.563314
 20
-1.494941
 40
0.125000
  1
CSA
 72
     5
 11
9.904890
 21
-1.494941
  0
TEXT
  8
Layer0$C$L0
 10
7.858256
 20
-1.469107
 40
0.125000
  1
U/L
 72
     5
 11
8.199831
 21
-1.469107
  0
TEXT
  8
Layer0$C$L0
 10
7.057395
 20
-1.895371
 40
0.125000
  1
FILE NO.
 72
     5
 11
8.023970
 21
-1.895371
  0
TEXT
  8
Layer0$C$L0
 10
5.690981
 20
-3.893213
 40
0.125000
  1
#10-#14 20
 72
     5
 11
6.907557
 21
-3.893213
  0
TEXT
  8
Layer0$C$L0
 10
5.682446
 20
-3.577342
 40
0.125000
  1
#8      25
 72
     5
 11
6.899021
 21
-3.577342
  0
TEXT
  8
Layer0$C$L0
 10
5.656834
 20
-3.304156
 40
0.125000
  1
#4-#6   35
 72
     5
 11
6.873409
 21
-3.304156
  0
TEXT
  8
Layer0$C$L0
 10
5.668145
 20
-2.986727
 40
0.125000
  1
#10-#14 20
 72
     5
 11
6.884720
 21
-2.986727
  0
TEXT
  8
Layer0$C$L0
 10
5.681796
 20
-2.640002
 40
0.125000
  1
#8      25
 72
     5
 11
6.898371
 21
-2.640002
  0
TEXT
  8
Layer0$C$L0
 10
5.673605
 20
-2.219565
 40
0.125000
  1
#4-#6   35
 72
     5
 11
6.890181
 21
-2.219565
  0
TEXT
  8
Layer0$C$L0
 10
4.735147
 20
-3.571132
 40
0.125000
  1
#4-#14
 72
     5
 11
5.451723
 21
-3.571132
  0
TEXT
  8
Layer0$C$L0
 10
4.728838
 20
-2.593185
 40
0.125000
  1
#4-#14
 72
     5
 11
5.445413
 21
-2.593185
  0
TEXT
  8
Layer0$C$L0
 10
3.309613
 20
-3.813902
 40
0.125000
  1
#8-#14  50
 72
     5
 11
4.526189
 21
-3.813902
  0
TEXT
  8
Layer0$C$L0
 10
3.321724
 20
-3.377907
 40
0.125000
  1
2/0-#6 120
 72
     5
 11
4.538299
 21
-3.377907
  0
TEXT
  8
Layer0$C$L0
 10
3.285391
 20
-3.014578
 40
0.125000
  1
#10-#14 35
 72
     5
 11
4.501967
 21
-3.014578
  0
TEXT
  8
Layer0$C$L0
 10
3.307746
 20
-2.709079
 40
0.125000
  1
#8      40
 72
     5
 11
4.524321
 21
-2.709079
  0
TEXT
  8
Layer0$C$L0
 10
3.315745
 20
-2.429064
 40
0.125000
  1
#4-#6   45
 72
     5
 11
4.532321
 21
-2.429064
  0
TEXT
  8
Layer0$C$L0
 10
3.299745
 20
-2.157049
 40
0.125000
  1
2/0-#3  50
 72
     5
 11
4.516320
 21
-2.157049
  0
TEXT
  8
Layer0$C$L0
 10
2.304404
 20
-3.629462
 40
0.125000
  1
2/0-#14
 72
     5
 11
3.145979
 21
-3.629462
  0
TEXT
  8
Layer0$C$L0
 10
2.331291
 20
-2.580567
 40
0.125000
  1
2/0-#14
 72
     5
 11
3.172867
 21
-2.580567
  0
TEXT
  8
Layer0$C$L0
 10
5.907772
 20
-1.895371
 40
0.125000
  1
TORQUE
 72
     5
 11
6.624347
 21
-1.895371
  0
TEXT
  8
Layer0$C$L0
 10
5.219851
 20
-1.589018
 40
0.125000
  1
SECONDARY
 72
     5
 11
6.311426
 21
-1.589018
  0
TEXT
  8
Layer0$C$L0
 10
4.771066
 20
-1.895371
 40
0.125000
  1
RANGE
 72
     5
 11
5.362642
 21
-1.895371
  0
TEXT
  8
Layer0$C$L0
 10
3.523757
 20
-1.885034
 40
0.125000
  1
TORQUE
 72
     5
 11
4.240332
 21
-1.885034
  0
TEXT
  8
Layer0$C$L0
 10
2.435697
 20
-1.885034
 40
0.125000
  1
RANGE
 72
     5
 11
3.027272
 21
-1.885034
  0
TEXT
  8
Layer0$C$L0
 10
2.832911
 20
-1.613138
 40
0.125000
  1
PRIMARY
 72
     5
 11
3.674487
 21
-1.613138
  0
TEXT
  8
Layer0$C$L0
 10
3.084342
 20
-1.321549
 40
0.125000
  1
WIRE RANGE & TORQUE (IN-LBS)
 72
     5
 11
6.550917
 21
-1.321549
  0
TEXT
  8
Layer0$C$L0
 10
1.580539
 20
-1.662863
 40
0.125000
  1
P/N
 72
     5
 11
1.922114
 21
-1.662863
  0
TEXT
  8
Layer0$C$L0
 10
1.531648
 20
-3.625113
 40
0.125000
  1
63133
 72
     5
 11
2.123223
 21
-3.625113
  0
TEXT
  8
Layer0$C$L0
 10
1.523696
 20
-2.574257
 40
0.125000
  1
62133
 72
     5
 11
2.115272
 21
-2.574257
  0
LINE
  8
Layer0$C$L0
 10
-2.399026
 20
-6.600119E-02
 11
-2.399026
 21
6.177276E-04
  0
POINT
  8
Layer0$C$L0
 10
-2.399026
 20
-2.875000
  0
LINE
  8
Layer0$C$L0
 10
-2.399026
 20
-2.875000
 11
0.187878
 21
-2.875000
  0
TEXT
  8
Layer0$C$L0
 10
7.023814
 20
-6.406199
 40
0.187000
  1
P/N 63133 (CU-AL)
 72
     5
 11
10.152810
 21
-6.406199
  0
TEXT
  8
Layer0$C$L0
 10
7.023814
 20
-5.938980
 40
0.187000
  1
P/N 62133 (CU ONLY)
 72
     5
 11
10.526810
 21
-5.938980
  0
TEXT
  8
Layer0$C$L0
 10
6.768508
 20
-9.518968
 40
0.125000
  1
BM
 72
     5
 11
6.985084
 21
-9.518968
  0
TEXT
  8
Layer0$C$L0
 10
6.768508
 20
-9.009916
 40
0.125000
  1
GO
 72
     5
 11
6.985084
 21
-9.009916
  0
TEXT
  8
Layer0$C$L0
 10
6.740228
 20
-8.741251
 40
0.125000
  1
GW
 72
     5
 11
6.956803
 21
-8.741251
  0
TEXT
  8
Layer0$C$L0
 10
6.609430
 20
-7.829202
 40
0.150000
  1
N/A
 72
     5
 11
7.019320
 21
-7.829202
  0
TEXT
  8
Layer0$C$L0
 10
6.270063
 20
-6.994924
 40
0.150000
  1
SEE NOTE 1
 72
     5
 11
7.729953
 21
-6.994924
  0
INSERT
  8
Layer0$C$L0
  2
REV-LINES
 10
10.648547
 20
-0.690527
  0
INSERT
  8
Layer0$C$L0
  2
REV-LINES
 10
10.648549
 20
-0.390526
  0
INSERT
  8
Layer0$C$L0
  2
REV-LINES
 10
10.648551
 20
-9.052497E-02
  0
ARC
  8
Layer0$C$L0
 10
4.887232
 20
-4.537231
 40
0.120500
 50
119.862553
 51
180.000005
  0
LINE
  8
Layer0$C$L0
 10
4.947231
 20
-4.432731
 11
4.827232
 21
-4.432731
  0
ARC
  8
Layer0$C$L0
 10
4.887232
 20
-4.537231
 40
0.120500
 50
0.000000
 51
60.137446
  0
ARC
  8
Layer0$C$L0
 10
-2.253680
 20
-4.537231
 40
0.120500
 50
119.862553
 51
180.000005
  0
LINE
  8
Layer0$C$L0
 10
-2.193681
 20
-4.432731
 11
-2.313680
 21
-4.432731
  0
ARC
  8
Layer0$C$L0
 10
-2.253680
 20
-4.537231
 40
0.120500
 50
0.000000
 51
60.137446
  0
DIMENSION
  8
Layer0$C$L0
  2
*D0
 10
-2.909545
 20
-4.432731
 11
-2.909545
 21
-5.136615
 13
-2.322214
 23
-6.442731
 14
-2.357914
 24
-4.432731
 50
90.000000
  3
DIM0
  0
DIMENSION
  8
Layer0$C$L0
  2
*D1
 10
1.669070
 20
-4.504731
 11
1.669070
 21
-5.032656
 13
0.266005
 23
-6.442731
 14
0.286853
 24
-4.504731
 50
89.999995
  3
DIM0
  0
TEXT
  8
Layer0$C$L0
 10
-3.045177
 20
-8.468149
 40
0.125000
  1
BASE-THERMOPLASTIC-125%%dC RTI
 72
     5
 11
0.421398
 21
-8.468149
  0
TEXT
  8
Layer0$C$L0
 10
8.066045
 20
-8.137960
 40
0.156000
  1
PDB, (1)2/0-#14X
 72
     5
 11
10.520331
 21
-8.137960
  0
TEXT
  8
Layer0$C$L0
 10
8.144045
 20
-8.371960
 40
0.156000
  1
(4)#4-14 3 POLE
 72
     5
 11
10.442331
 21
-8.371960
  0
TEXT
  8
Layer0$C$L0
 10
9.002045
 20
-8.605960
 40
0.156000
  1
600V
 72
     5
 11
9.584331
 21
-8.605960
  0
TEXT
  8
Layer0$C$L0
 10
10.187737
 20
-9.497313
 40
0.125000
  1
1 1
 72
     5
 11
10.529312
 21
-9.497313
  0
TEXT
  8
Layer0$C$L0
 10
8.263518
 20
-9.474351
 40
0.125000
  1
NONE
 72
     5
 11
8.730094
 21
-9.474351
  0
DIMENSION
  8
Layer0$C$L0
  2
*D2
 10
1.122240
 20
-5.212731
 11
1.122240
 21
-5.694991
 13
0.297714
 23
-6.442731
 14
-3.613609E-02
 24
-5.212731
 50
90.000000
  3
DIM1
  0
INSERT
  8
Layer0$C$L0
  2
B
 10
11.023553
 20
-9.958024
  0
TEXT
  8
Layer0$C$L0
 10
1.270837
 20
-0.571861
 40
0.125000
  1
6 PLCS
 72
     5
 11
1.987413
 21
-0.571861
  0
CIRCLE
  8
Layer0$C$L0
 10
-0.286122
 20
-0.910555
 40
0.187500
  0
CIRCLE
  8
Layer0$C$L0
 10
-0.286122
 20
-0.910555
 40
0.163125
  0
LINE
  8
Layer0$C$L0
 10
-0.192372
 20
-0.964681
 11
-0.192372
 21
-0.856428
  0
LINE
  8
Layer0$C$L0
 10
-0.286122
 20
-1.018808
 11
-0.192372
 21
-0.964682
  0
LINE
  8
Layer0$C$L0
 10
-0.379872
 20
-0.964682
 11
-0.286122
 21
-1.018808
  0
LINE
  8
Layer0$C$L0
 10
-0.379872
 20
-0.856428
 11
-0.379872
 21
-0.964681
  0
LINE
  8
Layer0$C$L0
 10
-0.286122
 20
-0.802302
 11
-0.379872
 21
-0.856428
  0
LINE
  8
Layer0$C$L0
 10
-0.192372
 20
-0.856428
 11
-0.286122
 21
-0.802302
  0
CIRCLE
  8
Layer0$C$L0
 10
-1.106122
 20
-0.910555
 40
0.187500
  0
CIRCLE
  8
Layer0$C$L0
 10
-1.106122
 20
-0.910555
 40
0.163125
  0
LINE
  8
Layer0$C$L0
 10
-1.012372
 20
-0.964681
 11
-1.012372
 21
-0.856428
  0
LINE
  8
Layer0$C$L0
 10
-1.106122
 20
-1.018808
 11
-1.012372
 21
-0.964682
  0
LINE
  8
Layer0$C$L0
 10
-1.199872
 20
-0.964682
 11
-1.106122
 21
-1.018808
  0
LINE
  8
Layer0$C$L0
 10
-1.199872
 20
-0.856428
 11
-1.199872
 21
-0.964681
  0
LINE
  8
Layer0$C$L0
 10
-1.106122
 20
-0.802302
 11
-1.199872
 21
-0.856428
  0
LINE
  8
Layer0$C$L0
 10
-1.012372
 20
-0.856428
 11
-1.106122
 21
-0.802302
  0
CIRCLE
  8
Layer0$C$L0
 10
-1.921122
 20
-0.910555
 40
0.187500
  0
CIRCLE
  8
Layer0$C$L0
 10
-1.921122
 20
-0.910555
 40
0.163125
  0
LINE
  8
Layer0$C$L0
 10
-1.827372
 20
-0.964681
 11
-1.827372
 21
-0.856428
  0
LINE
  8
Layer0$C$L0
 10
-1.921122
 20
-1.018808
 11
-1.827372
 21
-0.964682
  0
LINE
  8
Layer0$C$L0
 10
-2.014872
 20
-0.964682
 11
-1.921122
 21
-1.018808
  0
LINE
  8
Layer0$C$L0
 10
-2.014872
 20
-0.856428
 11
-2.014872
 21
-0.964681
  0
LINE
  8
Layer0$C$L0
 10
-1.921122
 20
-0.802302
 11
-2.014872
 21
-0.856428
  0
LINE
  8
Layer0$C$L0
 10
-1.827372
 20
-0.856428
 11
-1.921122
 21
-0.802302
  0
TEXT
  8
Layer0$C$L0
 10
-3.021191
 20
-7.758395
 40
0.156000
  1
P/N 63133 USES HEX SET SCREW.
 72
     5
 11
1.461094
 21
-7.758395
  0
TEXT
  8
Layer0$C$L0
 10
-3.496396
 20
-7.521308
 40
0.156000
  1
2  P/N 62133 USES SLOTTED SET SCREW
 72
     5
 11
1.921890
 21
-7.521308
  0
POLYLINE
  8
Layer0$C$L0
 66
     1
 70
     1
  0
VERTEX
  8
Layer0$C$L0
 10
-3.574396
 20
-7.287308
  0
VERTEX
  8
Layer0$C$L0
 10
-3.304110
 20
-7.287308
  0
VERTEX
  8
Layer0$C$L0
 10
-3.304110
 20
-7.599308
  0
VERTEX
  8
Layer0$C$L0
 10
-3.574396
 20
-7.599308
  0
SEQEND
  8
Layer0$C$L0
  0
DIMENSION
  8
Layer0$C$L0
  2
*D3
 70
     1
 10
-0.286122
 20
-4.221136
 11
-1.117504
 21
-4.221136
 13
-1.921122
 23
-2.798373
 14
-0.286122
 24
-2.798373
 50
180.000000
  3
DIM1
  0
POLYLINE
  8
Layer0$C$L0
 66
     1
  0
VERTEX
  8
Layer0$C$L0
 10
-9.373563E-02
 20
-0.937318
  0
VERTEX
  8
Layer0$C$L0
 10
0.587506
 20
-1.178832
  0
VERTEX
  8
Layer0$C$L0
 10
0.787506
 20
-1.178832
  0
SEQEND
  8
Layer0$C$L0
  0
SOLID
  8
Layer0$C$L0
 62
     0
 10
4.030326E-02
 20
-1.017127
 11
6.064197E-02
 21
-0.959758
 12
-9.373563E-02
 22
-0.937318
 13
-9.373563E-02
 23
-0.937318
  0
POLYLINE
  8
Layer0$C$L0
 66
     1
 70
     1
  0
VERTEX
  8
Layer0$C$L0
 10
0.787506
 20
-1.022832
  0
VERTEX
  8
Layer0$C$L0
 10
1.057792
 20
-1.022832
  0
VERTEX
  8
Layer0$C$L0
 10
1.057792
 20
-1.334832
  0
VERTEX
  8
Layer0$C$L0
 10
0.787506
 20
-1.334832
  0
SEQEND
  8
Layer0$C$L0
  0
TEXT
  8
Layer0$C$L0
 10
0.865506
 20
-1.256832
 40
0.156000
  1
2
 72
     5
 11
0.979792
 21
-1.256832
  0
LINE
  8
Layer0$C$L0
 10
-0.616122
 20
-1.942554
 11
4.387785E-02
 21
-1.942554
  0
LINE
  8
Layer0$C$L0
 10
-0.616122
 20
-1.568555
 11
4.387785E-02
 21
-1.568555
  0
CIRCLE
  8
Layer0$C$L0
 10
-0.286122
 20
-1.410555
 40
0.106500
  0
CIRCLE
  8
Layer0$C$L0
 10
-0.436122
 20
-2.129555
 40
0.106500
  0
CIRCLE
  8
Layer0$C$L0
 10
-0.136122
 20
-2.129555
 40
0.106500
  0
CIRCLE
  8
Layer0$C$L0
 10
-0.436122
 20
-1.755555
 40
0.106500
  0
CIRCLE
  8
Layer0$C$L0
 10
-0.136122
 20
-1.755555
 40
0.106500
  0
LINE
  8
Layer0$C$L0
 10
-0.345242
 20
-2.074030
 11
-0.491647
 21
-2.220435
  0
LINE
  8
Layer0$C$L0
 10
-0.380597
 20
-2.038674
 11
-0.527002
 21
-2.185080
  0
LINE
  8
Layer0$C$L0
 10
-4.524171E-02
 20
-2.074030
 11
-0.191647
 21
-2.220435
  0
LINE
  8
Layer0$C$L0
 10
-8.059692E-02
 20
-2.038674
 11
-0.227002
 21
-2.185080
  0
LINE
  8
Layer0$C$L0
 10
-4.524171E-02
 20
-1.700030
 11
-0.191647
 21
-1.846436
  0
LINE
  8
Layer0$C$L0
 10
-0.345241
 20
-1.700030
 11
-0.491647
 21
-1.846436
  0
LINE
  8
Layer0$C$L0
 10
-0.380597
 20
-1.664675
 11
-0.527002
 21
-1.811080
  0
LINE
  8
Layer0$C$L0
 10
-8.059704E-02
 20
-1.664675
 11
-0.227002
 21
-1.811080
  0
LINE
  8
Layer0$C$L0
 10
-0.286122
 20
-1.445910
 11
-0.321477
 21
-1.481266
  0
LINE
  8
Layer0$C$L0
 10
-0.321477
 20
-1.410555
 11
-0.356832
 21
-1.445910
  0
LINE
  8
Layer0$C$L0
 10
-0.286122
 20
-1.445910
 11
-0.250766
 21
-1.481265
  0
LINE
  8
Layer0$C$L0
 10
-0.250766
 20
-1.410555
 11
-0.215411
 21
-1.445910
  0
LINE
  8
Layer0$C$L0
 10
-0.356832
 20
-1.445910
 11
-0.321477
 21
-1.481266
  0
LINE
  8
Layer0$C$L0
 10
-0.215411
 20
-1.445910
 11
-0.250766
 21
-1.481265
  0
LINE
  8
Layer0$C$L0
 10
-0.250766
 20
-1.339845
 11
-0.215411
 21
-1.375199
  0
LINE
  8
Layer0$C$L0
 10
-0.321477
 20
-1.339845
 11
-0.356832
 21
-1.375199
  0
LINE
  8
Layer0$C$L0
 10
-0.356832
 20
-1.375199
 11
-0.321477
 21
-1.410555
  0
LINE
  8
Layer0$C$L0
 10
-0.215411
 20
-1.375199
 11
-0.250766
 21
-1.410555
  0
LINE
  8
Layer0$C$L0
 10
-0.250766
 20
-1.339845
 11
-0.286122
 21
-1.375199
  0
LINE
  8
Layer0$C$L0
 10
-0.286122
 20
-1.375199
 11
-0.321477
 21
-1.339845
  0
TEXT
  8
Layer0$C$L0
 10
1.824640
 20
-4.442951E-02
 40
0.125000
  1
%%c X .125 DP
 72
     5
 11
3.198716
 21
-4.442951E-02
  0
TEXT
  8
Layer0$C$L0
 10
1.218094
 20
-0.302871
 40
0.125000
  1
TYP
 72
     5
 11
1.559669
 21
-0.302871
  0
DIMENSION
  8
Layer0$C$L0
  2
*D4
 70
     3
 10
-0.188661
 20
-0.285498
 11
1.014232
 21
4.159176E-02
 15
-0.383583
 25
-0.338501
  3
DIM0
  0
LINE
  8
Layer0$C$L0
 10
-0.616122
 20
-0.562500
 11
4.387785E-02
 21
-0.562500
  0
LINE
  8
Layer0$C$L0
 10
-0.616122
 20
-2.312500
 11
4.387785E-02
 21
-2.312500
  0
LINE
  8
Layer0$C$L0
 10
4.387785E-02
 20
-0.562500
 11
4.387785E-02
 21
-2.312500
  0
LINE
  8
Layer0$C$L0
 10
-0.616122
 20
-0.562500
 11
-0.616122
 21
-2.312500
  0
LINE
  8
Layer0$C$L0
 10
-0.552122
 20
-0.562500
 11
-0.552122
 21
0.000000
  0
ARC
  8
Layer0$C$L0
 10
0.119524
 20
-2.683500
 40
0.143000
 50
118.644361
 51
241.355635
  0
LINE
  8
Layer0$C$L0
 10
-0.764026
 20
0.000000
 11
0.189193
 21
0.000000
  0
CIRCLE
  8
Layer0$C$L0
 10
-0.286122
 20
-2.562000
 40
0.101000
  0
CIRCLE
  8
Layer0$C$L0
 10
-0.286122
 20
-0.311999
 40
0.101000
  0
LINE
  8
Layer0$C$L0
 10
0.187878
 20
-2.557895
 11
0.187878
 21
-0.317105
  0
LINE
  8
Layer0$C$L0
 10
0.187878
 20
-2.875000
 11
0.187878
 21
-2.809106
  0
LINE
  8
Layer0$C$L0
 10
-0.552122
 20
-2.875000
 11
-0.552122
 21
-2.312500
  0
LINE
  8
Layer0$C$L0
 10
0.189193
 20
-6.661892E-02
 11
0.189193
 21
0.000000
  0
CIRCLE
  8
Layer0$C$L0
 10
0.119524
 20
-2.683500
 40
5.554999E-02
  0
CIRCLE
  8
Layer0$C$L0
 10
0.119524
 20
-0.191500
 40
5.554999E-02
  0
LINE
  8
Layer0$C$L0
 10
5.097414E-02
 20
-6.600094E-02
 11
5.097414E-02
 21
0.000000
  0
LINE
  8
Layer0$C$L0
 10
0.179524
 20
-8.757687E-02
 11
0.179524
 21
0.000000
  0
LINE
  8
Layer0$C$L0
 10
5.952431E-02
 20
-8.757687E-02
 11
5.952431E-02
 21
0.000000
  0
LINE
  8
Layer0$C$L0
 10
0.179524
 20
-2.579577
 11
0.179524
 21
-0.295423
  0
ARC
  8
Layer0$C$L0
 10
0.119524
 20
-0.191500
 40
0.120000
 50
299.999967
 51
420.000025
  0
ARC
  8
Layer0$C$L0
 10
0.119524
 20
-0.191500
 40
0.143000
 50
298.554699
 51
420.843663
  0
LINE
  8
Layer0$C$L0
 10
5.952431E-02
 20
-2.579577
 11
5.952431E-02
 21
-0.295423
  0
LINE
  8
Layer0$C$L0
 10
5.097414E-02
 20
-2.558002
 11
5.097414E-02
 21
-0.316998
  0
ARC
  8
Layer0$C$L0
 10
0.119524
 20
-0.191500
 40
0.120000
 50
119.999990
 51
240.000034
  0
ARC
  8
Layer0$C$L0
 10
0.119524
 20
-0.191500
 40
0.143000
 50
118.644361
 51
241.355663
  0
ARC
  8
Layer0$C$L0
 10
0.119524
 20
-2.683500
 40
0.120000
 50
119.999990
 51
240.000034
  0
ARC
  8
Layer0$C$L0
 10
0.119524
 20
-2.683500
 40
0.120000
 50
299.999967
 51
420.000025
  0
ARC
  8
Layer0$C$L0
 10
0.119524
 20
-2.683500
 40
0.143000
 50
298.554699
 51
421.445293
  0
LINE
  8
Layer0$C$L0
 10
0.179524
 20
-2.875000
 11
0.179524
 21
-2.787423
  0
LINE
  8
Layer0$C$L0
 10
5.952431E-02
 20
-2.875000
 11
5.952431E-02
 21
-2.787423
  0
LINE
  8
Layer0$C$L0
 10
5.097414E-02
 20
-2.875000
 11
5.097414E-02
 21
-2.808999
  0
LINE
  8
Layer0$C$L0
  6
CENTERLINE
 10
-0.286122
 20
-2.370361
 11
-0.286122
 21
-2.798373
  0
LINE
  8
Layer0$C$L0
  6
CENTERLINE
 10
-0.286122
 20
-0.124762
 11
-0.286122
 21
-0.494143
  0
LINE
  8
Layer0$C$L0
  6
CENTERLINE
 10
-0.482480
 20
-0.311999
 11
-0.124826
 21
-0.311999
  0
LINE
  8
Layer0$C$L0
  6
CENTERLINE
 10
-0.470753
 20
-2.562000
 11
-9.550976E-02
 21
-2.562000
  0
DIMENSION
  8
Layer0$C$L0
  2
*D5
 70
     1
 10
0.266005
 20
-7.038996
 11
-1.077143
 21
-7.038996
 13
-2.322214
 23
-6.442731
 14
0.266005
 24
-6.442731
 50
180.000000
  3
DIM1
  0
LINE
  8
Layer0$C$L0
 10
4.348785E-02
 20
-5.486100
 11
4.348785E-02
 21
-5.357731
  0
LINE
  8
Layer0$C$L0
 10
-0.156512
 20
-5.486100
 11
-0.156512
 21
-5.357731
  0
LINE
  8
Layer0$C$L0
 10
-0.256512
 20
-5.486101
 11
-0.256512
 21
-5.357731
  0
LINE
  8
Layer0$C$L0
 10
-0.456512
 20
-5.486101
 11
-0.456512
 21
-5.357731
  0
LINE
  8
Layer0$C$L0
 10
-0.435806
 20
-4.991100
 11
-0.277219
 21
-4.991100
  0
LINE
  8
Layer0$C$L0
 10
-0.456512
 20
-5.041101
 11
-0.256512
 21
-5.041101
  0
LINE
  8
Layer0$C$L0
 10
-0.456512
 20
-5.091101
 11
-0.256512
 21
-5.091101
  0
LINE
  8
Layer0$C$L0
 10
-0.135805
 20
-4.991100
 11
2.278060E-02
 21
-4.991100
  0
LINE
  8
Layer0$C$L0
 10
-0.156512
 20
-5.041100
 11
4.348785E-02
 21
-5.041100
  0
LINE
  8
Layer0$C$L0
 10
-0.156512
 20
-5.091100
 11
4.348785E-02
 21
-5.091100
  0
LINE
  8
Layer0$C$L0
 10
-0.135805
 20
-5.336100
 11
2.278060E-02
 21
-5.336100
  0
LINE
  8
Layer0$C$L0
 10
-0.435806
 20
-5.336100
 11
-0.277219
 21
-5.336100
  0
LINE
  8
Layer0$C$L0
 10
-0.456512
 20
-5.386100
 11
-0.256512
 21
-5.386100
  0
LINE
  8
Layer0$C$L0
 10
-0.156512
 20
-5.386100
 11
4.348785E-02
 21
-5.386100
  0
LINE
  8
Layer0$C$L0
 10
-0.156512
 20
-5.436100
 11
4.348785E-02
 21
-5.436100
  0
LINE
  8
Layer0$C$L0
 10
-0.456512
 20
-5.436100
 11
-0.256512
 21
-5.436100
  0
LINE
  8
Layer0$C$L0
 10
-0.456512
 20
-5.486101
 11
-0.256512
 21
-5.486101
  0
LINE
  8
Layer0$C$L0
 10
-0.156512
 20
-5.486100
 11
4.348785E-02
 21
-5.486100
  0
LINE
  8
Layer0$C$L0
 10
-0.156512
 20
-5.141100
 11
4.348785E-02
 21
-5.141100
  0
LINE
  8
Layer0$C$L0
 10
-0.456512
 20
-5.141101
 11
-0.256512
 21
-5.141101
  0
LINE
  8
Layer0$C$L0
 10
-0.456512
 20
-5.141101
 11
-0.356512
 21
-5.187732
  0
LINE
  8
Layer0$C$L0
 10
-0.156512
 20
-5.141100
 11
-5.651218E-02
 21
-5.187731
  0
LINE
  8
Layer0$C$L0
 10
-0.156512
 20
-5.486100
 11
-5.651218E-02
 21
-5.532731
  0
LINE
  8
Layer0$C$L0
 10
-0.456512
 20
-5.486101
 11
-0.356512
 21
-5.532732
  0
LINE
  8
Layer0$C$L0
 10
-0.356512
 20
-5.532731
 11
-0.256512
 21
-5.486101
  0
LINE
  8
Layer0$C$L0
 10
-5.651230E-02
 20
-5.532731
 11
4.348785E-02
 21
-5.486100
  0
LINE
  8
Layer0$C$L0
 10
-5.651206E-02
 20
-5.187731
 11
4.348785E-02
 21
-5.141100
  0
LINE
  8
Layer0$C$L0
 10
-0.356512
 20
-5.187732
 11
-0.256512
 21
-5.141101
  0
LINE
  8
Layer0$C$L0
 10
4.348785E-02
 20
-5.141100
 11
4.348785E-02
 21
-5.012732
  0
LINE
  8
Layer0$C$L0
 10
-0.156512
 20
-5.141100
 11
-0.156512
 21
-5.012732
  0
LINE
  8
Layer0$C$L0
 10
-0.256512
 20
-5.141101
 11
-0.256512
 21
-5.012732
  0
LINE
  8
Layer0$C$L0
 10
-0.456512
 20
-5.141101
 11
-0.456512
 21
-5.012731
  0
ARC
  8
Layer0$C$L0
 10
-5.651218E-02
 20
-5.432731
 40
0.125000
 50
21.235874
 51
336.643632
  0
ARC
  8
Layer0$C$L0
 10
-5.651218E-02
 20
-5.087731
 40
0.125000
 50
11.437184
 51
346.442330
  0
CIRCLE
  8
Layer0$C$L0
 10
-0.356512
 20
-5.432731
 40
0.125000
  0
CIRCLE
  8
Layer0$C$L0
 10
-0.356512
 20
-5.087731
 40
0.125000
  0
LINE
  8
Layer0$C$L0
 10
-0.498152
 20
-4.787731
 11
7.109899E-02
 21
-4.787731
  0
LINE
  8
Layer0$C$L0
 10
-0.687214
 20
-6.442731
 11
0.266005
 21
-6.442731
  0
LINE
  8
Layer0$C$L0
 10
-0.475310
 20
-6.317731
 11
0.128338
 21
-6.317731
  0
LINE
  8
Layer0$C$L0
 10
-0.475310
 20
-5.846731
 11
-0.475310
 21
-6.317731
  0
LINE
  8
Layer0$C$L0
 10
0.339690
 20
-5.846731
 11
0.263031
 21
-5.846731
  0
ARC
  8
Layer0$C$L0
 10
0.226485
 20
-4.534732
 40
3.000000E-02
 50
0.285852
 51
90.000003
  0
ARC
  8
Layer0$C$L0
 10
0.166204
 20
-4.534732
 40
3.000000E-02
 50
90.000003
 51
179.747220
  0
ARC
  8
Layer0$C$L0
 10
0.105786
 20
-4.534732
 40
3.000000E-02
 50
90.000003
 51
178.939768
  0
ARC
  8
Layer0$C$L0
 10
0.286853
 20
-4.534732
 40
3.000000E-02
 50
0.996984
 51
90.000003
  0
LINE
  8
Layer0$C$L0
 10
0.266005
 20
-6.442731
 11
0.256485
 21
-4.534582
  0
LINE
  8
Layer0$C$L0
 10
0.136204
 20
-4.534599
 11
0.128338
 21
-6.317731
  0
LINE
  8
Layer0$C$L0
 10
0.316849
 20
-4.534209
 11
0.339667
 21
-5.845398
  0
LINE
  8
Layer0$C$L0
 10
7.579155E-02
 20
-4.534176
 11
4.278345E-02
 21
-6.317731
  0
LINE
  8
Layer0$C$L0
 10
0.105786
 20
-4.504731
 11
0.286853
 21
-4.504731
  0
LINE
  8
Layer0$C$L0
 10
-0.475310
 20
-5.911731
 11
5.029745E-02
 21
-5.911731
  0
LINE
  8
Layer0$C$L0
 10
-0.478512
 20
-5.662731
 11
5.490560E-02
 21
-5.662731
  0
DIMENSION
  8
Layer0$C$L0
  2
*D6
 10
0.601724
 20
-5.557731
 11
0.601724
 21
-5.955249
 13
0.293587
 23
-6.442731
 14
-2.487469E-02
 24
-5.557731
 50
90.000000
  3
DIM1
  0
LINE
  8
Layer0$C$L0
 10
2.689424
 20
-5.066796
 11
2.990759
 21
-5.066796
  0
LINE
  8
Layer0$C$L0
 10
2.660092
 20
-5.166796
 11
3.020092
 21
-5.166796
  0
LINE
  8
Layer0$C$L0
 10
2.660092
 20
-5.266796
 11
3.020092
 21
-5.266796
  0
LINE
  8
Layer0$C$L0
 10
2.840092
 20
-5.350732
 11
3.020092
 21
-5.266796
  0
LINE
  8
Layer0$C$L0
 10
2.660092
 20
-5.266796
 11
2.840092
 21
-5.350731
  0
LINE
  8
Layer0$C$L0
 10
3.020092
 20
-5.266796
 11
3.020092
 21
-5.100988
  0
LINE
  8
Layer0$C$L0
 10
2.660092
 20
-5.266796
 11
2.660092
 21
-5.100988
  0
LINE
  8
Layer0$C$L0
 10
3.112092
 20
-5.662731
 11
2.578674
 21
-5.662731
  0
LINE
  8
Layer0$C$L0
 10
3.103890
 20
-5.911731
 11
2.583282
 21
-5.911731
  0
LINE
  8
Layer0$C$L0
 10
2.527793
 20
-4.504731
 11
2.346726
 21
-4.504731
  0
LINE
  8
Layer0$C$L0
 10
2.557788
 20
-4.534176
 11
2.590796
 21
-6.317731
  0
LINE
  8
Layer0$C$L0
 10
2.316731
 20
-4.534209
 11
2.293913
 21
-5.845398
  0
LINE
  8
Layer0$C$L0
 10
2.497375
 20
-4.534599
 11
2.505242
 21
-6.317731
  0
LINE
  8
Layer0$C$L0
 10
2.367575
 20
-6.442731
 11
2.377095
 21
-4.534582
  0
ARC
  8
Layer0$C$L0
 10
2.346726
 20
-4.534732
 40
3.000000E-02
 50
89.999996
 51
179.003016
  0
ARC
  8
Layer0$C$L0
 10
2.527793
 20
-4.534732
 40
3.000000E-02
 50
1.060232
 51
89.999996
  0
ARC
  8
Layer0$C$L0
 10
2.467375
 20
-4.534732
 40
3.000000E-02
 50
0.252780
 51
89.999996
  0
ARC
  8
Layer0$C$L0
 10
2.407094
 20
-4.534732
 40
3.000000E-02
 50
89.999996
 51
179.714148
  0
LINE
  8
Layer0$C$L0
 10
2.293890
 20
-5.846731
 11
2.370548
 21
-5.846731
  0
LINE
  8
Layer0$C$L0
 10
3.108890
 20
-6.317731
 11
2.505242
 21
-6.317731
  0
LINE
  8
Layer0$C$L0
 10
3.320794
 20
-6.442731
 11
2.367575
 21
-6.442731
  0
LINE
  8
Layer0$C$L0
 10
3.127319
 20
-4.787731
 11
2.562480
 21
-4.787731
  0
CIRCLE
  8
Layer0$C$L0
 10
2.840092
 20
-5.225731
 40
0.219000
  0
LINE
  8
Layer0$C$L0
 10
3.103890
 20
-5.846731
 11
3.103890
 21
-6.317731
  0
LINE
  8
Layer0$C$L0
 10
3.928890
 20
-5.846731
 11
4.005548
 21
-5.846731
  0
LINE
  8
Layer0$C$L0
 10
3.923890
 20
-5.846731
 11
4.000548
 21
-5.846731
  0
LINE
  8
Layer0$C$L0
 10
3.923890
 20
-5.846731
 11
3.923890
 21
-6.317731
  0
LINE
  8
Layer0$C$L0
  6
CENTERLINE
 10
-1.290753
 20
-2.562000
 11
-0.915510
 21
-2.562000
  0
LINE
  8
Layer0$C$L0
  6
CENTERLINE
 10
-1.302480
 20
-0.311999
 11
-0.944826
 21
-0.311999
  0
LINE
  8
Layer0$C$L0
  6
CENTERLINE
 10
-1.106122
 20
-0.124762
 11
-1.106122
 21
-0.494143
  0
LINE
  8
Layer0$C$L0
  6
CENTERLINE
 10
-1.106122
 20
-2.370361
 11
-1.106122
 21
-2.798373
  0
LINE
  8
Layer0$C$L0
 10
-0.769026
 20
-2.875000
 11
-0.769026
 21
-2.808999
  0
LINE
  8
Layer0$C$L0
 10
-0.760476
 20
-2.875000
 11
-0.760476
 21
-2.787423
  0
LINE
  8
Layer0$C$L0
 10
-0.640476
 20
-2.875000
 11
-0.640476
 21
-2.787423
  0
ARC
  8
Layer0$C$L0
 10
-0.700476
 20
-2.683500
 40
0.143000
 50
298.554699
 51
421.445293
  0
ARC
  8
Layer0$C$L0
 10
-0.700476
 20
-2.683500
 40
0.120000
 50
299.999967
 51
420.000025
  0
ARC
  8
Layer0$C$L0
 10
-0.700476
 20
-2.683500
 40
0.120000
 50
119.999990
 51
240.000034
  0
ARC
  8
Layer0$C$L0
 10
-0.700476
 20
-0.191500
 40
0.143000
 50
118.644361
 51
241.355663
  0
ARC
  8
Layer0$C$L0
 10
-0.700476
 20
-0.191500
 40
0.120000
 50
119.999990
 51
240.000034
  0
LINE
  8
Layer0$C$L0
 10
-0.769026
 20
-2.558002
 11
-0.769026
 21
-0.316998
  0
LINE
  8
Layer0$C$L0
 10
-0.760476
 20
-2.579577
 11
-0.760476
 21
-0.295423
  0
ARC
  8
Layer0$C$L0
 10
-0.700476
 20
-0.191500
 40
0.143000
 50
298.554699
 51
420.843663
  0
ARC
  8
Layer0$C$L0
 10
-0.700476
 20
-0.191500
 40
0.120000
 50
299.999967
 51
420.000025
  0
LINE
  8
Layer0$C$L0
 10
-0.640476
 20
-2.579577
 11
-0.640476
 21
-0.295423
  0
LINE
  8
Layer0$C$L0
 10
-0.760476
 20
-8.757687E-02
 11
-0.760476
 21
0.000000
  0
LINE
  8
Layer0$C$L0
 10
-0.640476
 20
-8.757687E-02
 11
-0.640476
 21
0.000000
  0
LINE
  8
Layer0$C$L0
 10
-0.769026
 20
-6.600094E-02
 11
-0.769026
 21
0.000000
  0
CIRCLE
  8
Layer0$C$L0
 10
-0.700476
 20
-0.191500
 40
5.554999E-02
  0
CIRCLE
  8
Layer0$C$L0
 10
-0.700476
 20
-2.683500
 40
5.554999E-02
  0
LINE
  8
Layer0$C$L0
 10
-0.630807
 20
-6.661892E-02
 11
-0.630807
 21
0.000000
  0
LINE
  8
Layer0$C$L0
 10
-1.372122
 20
-2.875000
 11
-1.372122
 21
-2.312500
  0
LINE
  8
Layer0$C$L0
 10
-0.632122
 20
-2.875000
 11
-0.632122
 21
-2.809106
  0
LINE
  8
Layer0$C$L0
 10
-0.632122
 20
-2.557895
 11
-0.632122
 21
-0.317105
  0
LINE
  8
Layer0$C$L0
 10
-0.632122
 20
-2.875000
 11
-0.632122
 21
-2.809106
  0
CIRCLE
  8
Layer0$C$L0
 10
-1.106122
 20
-0.311999
 40
0.101000
  0
CIRCLE
  8
Layer0$C$L0
 10
-1.106122
 20
-2.562000
 40
0.101000
  0
LINE
  8
Layer0$C$L0
 10
-1.584026
 20
0.000000
 11
-0.630807
 21
0.000000
  0
ARC
  8
Layer0$C$L0
 10
-0.700476
 20
-2.683500
 40
0.143000
 50
118.644361
 51
241.355635
  0
LINE
  8
Layer0$C$L0
 10
-1.372122
 20
-0.562500
 11
-1.372122
 21
0.000000
  0
LINE
  8
Layer0$C$L0
 10
-1.436122
 20
-0.562500
 11
-1.436122
 21
-2.312500
  0
LINE
  8
Layer0$C$L0
 10
-0.776122
 20
-0.562500
 11
-0.776122
 21
-2.312500
  0
LINE
  8
Layer0$C$L0
 10
-1.436122
 20
-2.312500
 11
-0.776122
 21
-2.312500
  0
LINE
  8
Layer0$C$L0
 10
-1.436122
 20
-0.562500
 11
-0.776122
 21
-0.562500
  0
DIMENSION
  8
Layer0$C$L0
  2
*D7
 10
-3.289785
 20
-0.311999
 11
-3.347641
 21
-1.339872
 13
-2.105753
 23
-2.562000
 14
-2.117480
 24
-0.311999
 50
90.000000
  3
DIM0
  0
DIMENSION
  8
Layer0$C$L0
  2
*D8
 70
     1
 10
-4.079690
 20
0.000000
 11
-4.137545
 21
-0.641317
 13
-2.399026
 23
-2.875000
 14
-2.399026
 24
0.000000
 50
90.000000
  3
DIM0
  0
CIRCLE
  8
Layer0$C$L0
 10
-2.330476
 20
-2.683500
 40
5.554999E-02
  0
DIMENSION
  8
Layer0$C$L0
  2
*D9
 10
-1.921122
 20
-3.219927
 11
-1.545459
 21
-3.235427
 13
-2.399026
 23
-2.898840
 14
-1.921122
 24
-2.798373
  3
DIM0
  0
DIMENSION
  8
Layer0$C$L0
  2
*D10
 10
-3.290421
 20
-2.562000
 11
-3.332776
 21
-3.343582
 13
-2.399026
 23
-2.875000
 14
-2.105753
 24
-2.562000
 50
90.000000
  3
DIM0
  0
LINE
  8
Layer0$C$L0
 10
-2.251122
 20
-0.562500
 11
-1.591122
 21
-0.562500
  0
LINE
  8
Layer0$C$L0
 10
-2.251122
 20
-2.312500
 11
-1.591122
 21
-2.312500
  0
LINE
  8
Layer0$C$L0
 10
-1.591122
 20
-0.562500
 11
-1.591122
 21
-2.312500
  0
LINE
  8
Layer0$C$L0
 10
-2.251122
 20
-0.562500
 11
-2.251122
 21
-2.312500
  0
LINE
  8
Layer0$C$L0
 10
-2.262122
 20
-2.557895
 11
-2.262122
 21
-2.399229
  0
LINE
  8
Layer0$C$L0
 10
-2.262122
 20
-2.399229
 11
-2.262122
 21
-0.317105
  0
LINE
  8
Layer0$C$L0
 10
-2.399026
 20
-2.875000
 11
-2.399026
 21
-2.808999
  0
LINE
  8
Layer0$C$L0
 10
-2.390476
 20
-2.875000
 11
-2.390476
 21
-2.813304
  0
LINE
  8
Layer0$C$L0
 10
-2.270476
 20
-2.875000
 11
-2.270476
 21
-2.813304
  0
CIRCLE
  8
Layer0$C$L0
 10
-2.330476
 20
-2.683500
 40
0.143000
  0
LINE
  8
Layer0$C$L0
 10
-2.390476
 20
-2.553697
 11
-2.390476
 21
-0.321303
  0
CIRCLE
  8
Layer0$C$L0
 10
-2.330476
 20
-0.191500
 40
0.143000
  0
LINE
  8
Layer0$C$L0
 10
-2.270476
 20
-2.553697
 11
-2.270476
 21
-0.321303
  0
LINE
  8
Layer0$C$L0
 10
-2.390476
 20
-6.169599E-02
 11
-2.390476
 21
0.000000
  0
LINE
  8
Layer0$C$L0
 10
-2.270476
 20
-6.169599E-02
 11
-2.270476
 21
0.000000
  0
CIRCLE
  8
Layer0$C$L0
 10
-2.330476
 20
-0.191500
 40
5.554999E-02
  0
LINE
  8
Layer0$C$L0
 10
-2.260807
 20
-6.661892E-02
 11
-2.260807
 21
0.000000
  0
LINE
  8
Layer0$C$L0
 10
-2.262122
 20
-2.875000
 11
-2.262122
 21
-2.809106
  0
LINE
  8
Layer0$C$L0
 10
-2.187122
 20
-0.562500
 11
-2.187122
 21
0.000000
  0
ARC
  8
Layer0$C$L0
 10
-1.515476
 20
-2.683500
 40
0.143000
 50
118.644361
 51
241.355635
  0
LINE
  8
Layer0$C$L0
 10
-2.399026
 20
0.000000
 11
-1.445807
 21
0.000000
  0
CIRCLE
  8
Layer0$C$L0
 10
-1.921122
 20
-2.562000
 40
0.101000
  0
CIRCLE
  8
Layer0$C$L0
 10
-1.921122
 20
-0.311999
 40
0.101000
  0
LINE
  8
Layer0$C$L0
 10
-1.447122
 20
-2.557895
 11
-1.447122
 21
-0.317105
  0
LINE
  8
Layer0$C$L0
 10
-1.447122
 20
-2.875000
 11
-1.447122
 21
-2.809106
  0
LINE
  8
Layer0$C$L0
 10
-2.187122
 20
-2.875000
 11
-2.187122
 21
-2.312500
  0
LINE
  8
Layer0$C$L0
 10
-1.445807
 20
-6.661892E-02
 11
-1.445807
 21
0.000000
  0
CIRCLE
  8
Layer0$C$L0
 10
-1.515476
 20
-2.683500
 40
5.554999E-02
  0
CIRCLE
  8
Layer0$C$L0
 10
-1.515476
 20
-0.191500
 40
5.554999E-02
  0
LINE
  8
Layer0$C$L0
 10
-1.584026
 20
-6.600094E-02
 11
-1.584026
 21
0.000000
  0
LINE
  8
Layer0$C$L0
 10
-1.455476
 20
-8.757687E-02
 11
-1.455476
 21
0.000000
  0
LINE
  8
Layer0$C$L0
 10
-1.575476
 20
-8.757687E-02
 11
-1.575476
 21
0.000000
  0
LINE
  8
Layer0$C$L0
 10
-1.455476
 20
-2.579577
 11
-1.455476
 21
-0.295423
  0
ARC
  8
Layer0$C$L0
 10
-1.515476
 20
-0.191500
 40
0.120000
 50
299.999967
 51
420.000025
  0
ARC
  8
Layer0$C$L0
 10
-1.515476
 20
-0.191500
 40
0.143000
 50
298.554699
 51
420.843663
  0
LINE
  8
Layer0$C$L0
 10
-1.575476
 20
-2.579577
 11
-1.575476
 21
-0.295423
  0
LINE
  8
Layer0$C$L0
 10
-1.584026
 20
-2.558002
 11
-1.584026
 21
-0.316998
  0
ARC
  8
Layer0$C$L0
 10
-1.515476
 20
-0.191500
 40
0.120000
 50
119.999990
 51
240.000034
  0
ARC
  8
Layer0$C$L0
 10
-1.515476
 20
-0.191500
 40
0.143000
 50
118.644361
 51
241.355663
  0
ARC
  8
Layer0$C$L0
 10
-1.515476
 20
-2.683500
 40
0.120000
 50
119.999990
 51
240.000034
  0
ARC
  8
Layer0$C$L0
 10
-1.515476
 20
-2.683500
 40
0.120000
 50
299.999967
 51
420.000025
  0
ARC
  8
Layer0$C$L0
 10
-1.515476
 20
-2.683500
 40
0.143000
 50
298.554699
 51
421.445293
  0
LINE
  8
Layer0$C$L0
 10
-1.455476
 20
-2.875000
 11
-1.455476
 21
-2.787423
  0
LINE
  8
Layer0$C$L0
 10
-1.575476
 20
-2.875000
 11
-1.575476
 21
-2.787423
  0
LINE
  8
Layer0$C$L0
 10
-1.584026
 20
-2.875000
 11
-1.584026
 21
-2.808999
  0
LINE
  8
Layer0$C$L0
  6
CENTERLINE
 10
-1.921122
 20
-2.370361
 11
-1.921122
 21
-2.798373
  0
LINE
  8
Layer0$C$L0
  6
CENTERLINE
 10
-1.921122
 20
-0.124762
 11
-1.921122
 21
-0.494143
  0
LINE
  8
Layer0$C$L0
  6
CENTERLINE
 10
-2.117480
 20
-0.311999
 11
-1.759826
 21
-0.311999
  0
LINE
  8
Layer0$C$L0
  6
CENTERLINE
 10
-2.105753
 20
-2.562000
 11
-1.730510
 21
-2.562000
  0
LINE
  8
Layer0$C$L0
 10
-2.251122
 20
-1.942554
 11
-1.591122
 21
-1.942554
  0
LINE
  8
Layer0$C$L0
 10
-2.251122
 20
-1.568555
 11
-1.591122
 21
-1.568555
  0
CIRCLE
  8
Layer0$C$L0
 10
-1.921122
 20
-1.410555
 40
0.106500
  0
CIRCLE
  8
Layer0$C$L0
 10
-2.071122
 20
-2.129555
 40
0.106500
  0
CIRCLE
  8
Layer0$C$L0
 10
-1.771122
 20
-2.129555
 40
0.106500
  0
CIRCLE
  8
Layer0$C$L0
 10
-2.071122
 20
-1.755555
 40
0.106500
  0
CIRCLE
  8
Layer0$C$L0
 10
-1.771122
 20
-1.755555
 40
0.106500
  0
LINE
  8
Layer0$C$L0
 10
-1.980242
 20
-2.074030
 11
-2.126647
 21
-2.220435
  0
LINE
  8
Layer0$C$L0
 10
-2.015597
 20
-2.038674
 11
-2.162002
 21
-2.185080
  0
LINE
  8
Layer0$C$L0
 10
-1.680242
 20
-2.074030
 11
-1.826647
 21
-2.220435
  0
LINE
  8
Layer0$C$L0
 10
-1.715597
 20
-2.038674
 11
-1.862002
 21
-2.185080
  0
LINE
  8
Layer0$C$L0
 10
-1.680242
 20
-1.700030
 11
-1.826647
 21
-1.846436
  0
LINE
  8
Layer0$C$L0
 10
-1.980242
 20
-1.700030
 11
-2.126647
 21
-1.846436
  0
LINE
  8
Layer0$C$L0
 10
-2.015597
 20
-1.664675
 11
-2.162002
 21
-1.811080
  0
LINE
  8
Layer0$C$L0
 10
-1.715597
 20
-1.664675
 11
-1.862002
 21
-1.811080
  0
LINE
  8
Layer0$C$L0
 10
-1.921122
 20
-1.445910
 11
-1.956477
 21
-1.481266
  0
LINE
  8
Layer0$C$L0
 10
-1.956477
 20
-1.410555
 11
-1.991832
 21
-1.445910
  0
LINE
  8
Layer0$C$L0
 10
-1.921122
 20
-1.445910
 11
-1.885767
 21
-1.481265
  0
LINE
  8
Layer0$C$L0
 10
-1.885766
 20
-1.410555
 11
-1.850411
 21
-1.445910
  0
LINE
  8
Layer0$C$L0
 10
-1.991832
 20
-1.445910
 11
-1.956477
 21
-1.481266
  0
LINE
  8
Layer0$C$L0
 10
-1.850411
 20
-1.445910
 11
-1.885767
 21
-1.481265
  0
LINE
  8
Layer0$C$L0
 10
-1.885766
 20
-1.339845
 11
-1.850411
 21
-1.375199
  0
LINE
  8
Layer0$C$L0
 10
-1.956477
 20
-1.339845
 11
-1.991832
 21
-1.375199
  0
LINE
  8
Layer0$C$L0
 10
-1.991832
 20
-1.375199
 11
-1.956477
 21
-1.410555
  0
LINE
  8
Layer0$C$L0
 10
-1.850411
 20
-1.375199
 11
-1.885766
 21
-1.410555
  0
LINE
  8
Layer0$C$L0
 10
-1.885766
 20
-1.339845
 11
-1.921122
 21
-1.375199
  0
LINE
  8
Layer0$C$L0
 10
-1.921122
 20
-1.375199
 11
-1.956477
 21
-1.339845
  0
LINE
  8
Layer0$C$L0
 10
-1.106122
 20
-1.375199
 11
-1.141477
 21
-1.339845
  0
LINE
  8
Layer0$C$L0
 10
-1.070766
 20
-1.339845
 11
-1.106122
 21
-1.375199
  0
LINE
  8
Layer0$C$L0
 10
-1.035411
 20
-1.375199
 11
-1.070766
 21
-1.410555
  0
LINE
  8
Layer0$C$L0
 10
-1.176832
 20
-1.375199
 11
-1.141477
 21
-1.410555
  0
LINE
  8
Layer0$C$L0
 10
-1.141477
 20
-1.339845
 11
-1.176832
 21
-1.375199
  0
LINE
  8
Layer0$C$L0
 10
-1.070766
 20
-1.339845
 11
-1.035411
 21
-1.375199
  0
LINE
  8
Layer0$C$L0
 10
-1.035411
 20
-1.445910
 11
-1.070766
 21
-1.481265
  0
LINE
  8
Layer0$C$L0
 10
-1.176832
 20
-1.445910
 11
-1.141477
 21
-1.481266
  0
LINE
  8
Layer0$C$L0
 10
-1.070766
 20
-1.410555
 11
-1.035411
 21
-1.445910
  0
LINE
  8
Layer0$C$L0
 10
-1.106122
 20
-1.445910
 11
-1.070766
 21
-1.481265
  0
LINE
  8
Layer0$C$L0
 10
-1.141477
 20
-1.410555
 11
-1.176832
 21
-1.445910
  0
LINE
  8
Layer0$C$L0
 10
-1.106122
 20
-1.445910
 11
-1.141477
 21
-1.481266
  0
LINE
  8
Layer0$C$L0
 10
-0.900597
 20
-1.664675
 11
-1.047002
 21
-1.811080
  0
LINE
  8
Layer0$C$L0
 10
-1.200597
 20
-1.664675
 11
-1.347002
 21
-1.811080
  0
LINE
  8
Layer0$C$L0
 10
-1.165241
 20
-1.700030
 11
-1.311647
 21
-1.846436
  0
LINE
  8
Layer0$C$L0
 10
-0.865242
 20
-1.700030
 11
-1.011647
 21
-1.846436
  0
LINE
  8
Layer0$C$L0
 10
-0.900597
 20
-2.038674
 11
-1.047002
 21
-2.185080
  0
LINE
  8
Layer0$C$L0
 10
-0.865242
 20
-2.074030
 11
-1.011647
 21
-2.220435
  0
LINE
  8
Layer0$C$L0
 10
-1.200597
 20
-2.038674
 11
-1.347002
 21
-2.185080
  0
LINE
  8
Layer0$C$L0
 10
-1.165242
 20
-2.074030
 11
-1.311647
 21
-2.220435
  0
CIRCLE
  8
Layer0$C$L0
 10
-0.956122
 20
-1.755555
 40
0.106500
  0
CIRCLE
  8
Layer0$C$L0
 10
-1.256122
 20
-1.755555
 40
0.106500
  0
CIRCLE
  8
Layer0$C$L0
 10
-0.956122
 20
-2.129555
 40
0.106500
  0
CIRCLE
  8
Layer0$C$L0
 10
-1.256122
 20
-2.129555
 40
0.106500
  0
CIRCLE
  8
Layer0$C$L0
 10
-1.106122
 20
-1.410555
 40
0.106500
  0
LINE
  8
Layer0$C$L0
 10
-1.436122
 20
-1.568555
 11
-0.776122
 21
-1.568555
  0
LINE
  8
Layer0$C$L0
 10
-1.436122
 20
-1.942554
 11
-0.776122
 21
-1.942554
  0
DIMENSION
  8
Layer0$C$L0
  2
*D11
 70
     1
 10
-1.106122
 20
-3.750778
 11
-2.460558
 21
-3.750778
 13
-1.921122
 23
-2.798373
 14
-1.106122
 24
-2.798373
  3
DIM1
  0
DIMENSION
  8
Layer0$C$L0
  2
*D12
 10
5.476331
 20
-5.444731
 11
5.476331
 21
-5.900984
 13
5.024102
 23
-6.442731
 14
4.571212
 24
-5.444731
 50
90.000000
  3
DIM1
  0
LINE
  8
Layer0$C$L0
 10
-1.298512
 20
-5.662731
 11
-0.765094
 21
-5.662731
  0
LINE
  8
Layer0$C$L0
 10
-1.295310
 20
-5.911731
 11
-0.769703
 21
-5.911731
  0
LINE
  8
Layer0$C$L0
 10
-0.714214
 20
-4.504731
 11
-0.533147
 21
-4.504731
  0
LINE
  8
Layer0$C$L0
 10
-0.692214
 20
-6.442731
 11
-0.553995
 21
-6.442731
  0
LINE
  8
Layer0$C$L0
 10
-0.744208
 20
-4.534176
 11
-0.777217
 21
-6.317731
  0
LINE
  8
Layer0$C$L0
 10
-0.503151
 20
-4.534209
 11
-0.480333
 21
-5.845398
  0
LINE
  8
Layer0$C$L0
 10
-0.683796
 20
-4.534599
 11
-0.691662
 21
-6.317731
  0
LINE
  8
Layer0$C$L0
 10
-0.553995
 20
-6.442731
 11
-0.563515
 21
-4.534582
  0
ARC
  8
Layer0$C$L0
 10
-0.533147
 20
-4.534732
 40
3.000000E-02
 50
0.996984
 51
90.000003
  0
ARC
  8
Layer0$C$L0
 10
-0.714214
 20
-4.534732
 40
3.000000E-02
 50
90.000003
 51
178.939768
  0
ARC
  8
Layer0$C$L0
 10
-0.653796
 20
-4.534732
 40
3.000000E-02
 50
90.000003
 51
179.747220
  0
ARC
  8
Layer0$C$L0
 10
-0.593515
 20
-4.534732
 40
3.000000E-02
 50
0.285852
 51
90.000003
  0
LINE
  8
Layer0$C$L0
 10
-0.480310
 20
-5.846731
 11
-0.556969
 21
-5.846731
  0
LINE
  8
Layer0$C$L0
 10
-1.295310
 20
-5.846731
 11
-1.295310
 21
-6.317731
  0
LINE
  8
Layer0$C$L0
 10
-1.295310
 20
-6.317731
 11
-0.691662
 21
-6.317731
  0
LINE
  8
Layer0$C$L0
 10
-1.507214
 20
-6.442731
 11
-0.692214
 21
-6.442731
  0
LINE
  8
Layer0$C$L0
 10
-1.318152
 20
-4.787731
 11
-0.748901
 21
-4.787731
  0
CIRCLE
  8
Layer0$C$L0
 10
-1.176512
 20
-5.087731
 40
0.125000
  0
CIRCLE
  8
Layer0$C$L0
 10
-1.176512
 20
-5.432731
 40
0.125000
  0
ARC
  8
Layer0$C$L0
 10
-0.876512
 20
-5.087731
 40
0.125000
 50
11.437184
 51
346.442330
  0
ARC
  8
Layer0$C$L0
 10
-0.876512
 20
-5.432731
 40
0.125000
 50
21.235874
 51
336.643632
  0
LINE
  8
Layer0$C$L0
 10
-1.276512
 20
-5.141101
 11
-1.276512
 21
-5.012731
  0
LINE
  8
Layer0$C$L0
 10
-1.076512
 20
-5.141101
 11
-1.076512
 21
-5.012732
  0
LINE
  8
Layer0$C$L0
 10
-0.976512
 20
-5.141100
 11
-0.976512
 21
-5.012732
  0
LINE
  8
Layer0$C$L0
 10
-0.776512
 20
-5.141100
 11
-0.776512
 21
-5.012732
  0
LINE
  8
Layer0$C$L0
 10
-1.176512
 20
-5.187732
 11
-1.076512
 21
-5.141101
  0
LINE
  8
Layer0$C$L0
 10
-0.876512
 20
-5.187731
 11
-0.776512
 21
-5.141100
  0
LINE
  8
Layer0$C$L0
 10
-0.876512
 20
-5.532731
 11
-0.776512
 21
-5.486100
  0
LINE
  8
Layer0$C$L0
 10
-1.176512
 20
-5.532731
 11
-1.076512
 21
-5.486101
  0
LINE
  8
Layer0$C$L0
 10
-1.276512
 20
-5.486101
 11
-1.176512
 21
-5.532732
  0
LINE
  8
Layer0$C$L0
 10
-0.976512
 20
-5.486100
 11
-0.876512
 21
-5.532731
  0
LINE
  8
Layer0$C$L0
 10
-0.976512
 20
-5.141100
 11
-0.876512
 21
-5.187731
  0
LINE
  8
Layer0$C$L0
 10
-1.276512
 20
-5.141101
 11
-1.176512
 21
-5.187732
  0
LINE
  8
Layer0$C$L0
 10
-1.276512
 20
-5.141101
 11
-1.076512
 21
-5.141101
  0
LINE
  8
Layer0$C$L0
 10
-0.976512
 20
-5.141100
 11
-0.776512
 21
-5.141100
  0
LINE
  8
Layer0$C$L0
 10
-0.976512
 20
-5.486100
 11
-0.776512
 21
-5.486100
  0
LINE
  8
Layer0$C$L0
 10
-1.276512
 20
-5.486101
 11
-1.076512
 21
-5.486101
  0
LINE
  8
Layer0$C$L0
 10
-1.276512
 20
-5.436100
 11
-1.076512
 21
-5.436100
  0
LINE
  8
Layer0$C$L0
 10
-0.976512
 20
-5.436100
 11
-0.776512
 21
-5.436100
  0
LINE
  8
Layer0$C$L0
 10
-0.976512
 20
-5.386100
 11
-0.776512
 21
-5.386100
  0
LINE
  8
Layer0$C$L0
 10
-1.276512
 20
-5.386100
 11
-1.076512
 21
-5.386100
  0
LINE
  8
Layer0$C$L0
 10
-1.255806
 20
-5.336100
 11
-1.097219
 21
-5.336100
  0
LINE
  8
Layer0$C$L0
 10
-0.955805
 20
-5.336100
 11
-0.797219
 21
-5.336100
  0
LINE
  8
Layer0$C$L0
 10
-0.976512
 20
-5.091100
 11
-0.776512
 21
-5.091100
  0
LINE
  8
Layer0$C$L0
 10
-0.976512
 20
-5.041100
 11
-0.776512
 21
-5.041100
  0
LINE
  8
Layer0$C$L0
 10
-0.955805
 20
-4.991100
 11
-0.797219
 21
-4.991100
  0
LINE
  8
Layer0$C$L0
 10
-1.276512
 20
-5.091101
 11
-1.076512
 21
-5.091101
  0
LINE
  8
Layer0$C$L0
 10
-1.276512
 20
-5.041101
 11
-1.076512
 21
-5.041101
  0
LINE
  8
Layer0$C$L0
 10
-1.255806
 20
-4.991100
 11
-1.097219
 21
-4.991100
  0
LINE
  8
Layer0$C$L0
 10
-1.276512
 20
-5.486101
 11
-1.276512
 21
-5.357731
  0
LINE
  8
Layer0$C$L0
 10
-1.076512
 20
-5.486101
 11
-1.076512
 21
-5.357731
  0
LINE
  8
Layer0$C$L0
 10
-0.976512
 20
-5.486100
 11
-0.976512
 21
-5.357731
  0
LINE
  8
Layer0$C$L0
 10
-0.776512
 20
-5.486100
 11
-0.776512
 21
-5.357731
  0
CIRCLE
  8
Layer0$C$L0
 10
3.660092
 20
-5.225731
 40
0.219000
  0
LINE
  8
Layer0$C$L0
 10
3.947319
 20
-4.787731
 11
3.382481
 21
-4.787731
  0
LINE
  8
Layer0$C$L0
 10
4.140794
 20
-6.442731
 11
3.187575
 21
-6.442731
  0
LINE
  8
Layer0$C$L0
 10
3.928890
 20
-6.317731
 11
3.325242
 21
-6.317731
  0
LINE
  8
Layer0$C$L0
 10
3.103890
 20
-5.846731
 11
3.190548
 21
-5.846731
  0
ARC
  8
Layer0$C$L0
 10
3.227094
 20
-4.534732
 40
3.000000E-02
 50
89.999996
 51
179.714148
  0
ARC
  8
Layer0$C$L0
 10
3.287375
 20
-4.534732
 40
3.000000E-02
 50
0.252780
 51
89.999996
  0
ARC
  8
Layer0$C$L0
 10
3.347794
 20
-4.534732
 40
3.000000E-02
 50
1.060232
 51
89.999996
  0
ARC
  8
Layer0$C$L0
 10
3.166726
 20
-4.534732
 40
3.000000E-02
 50
89.999996
 51
179.003016
  0
LINE
  8
Layer0$C$L0
 10
3.187575
 20
-6.442731
 11
3.197094
 21
-4.534582
  0
LINE
  8
Layer0$C$L0
 10
3.317375
 20
-4.534599
 11
3.325242
 21
-6.317731
  0
LINE
  8
Layer0$C$L0
 10
3.136731
 20
-4.534209
 11
3.113913
 21
-5.845398
  0
LINE
  8
Layer0$C$L0
 10
3.377788
 20
-4.534176
 11
3.410796
 21
-6.317731
  0
LINE
  8
Layer0$C$L0
 10
3.347794
 20
-4.504731
 11
3.166726
 21
-4.504731
  0
LINE
  8
Layer0$C$L0
 10
3.923890
 20
-5.911731
 11
3.403282
 21
-5.911731
  0
LINE
  8
Layer0$C$L0
 10
3.932092
 20
-5.662731
 11
3.398674
 21
-5.662731
  0
LINE
  8
Layer0$C$L0
 10
3.480092
 20
-5.266796
 11
3.480092
 21
-5.100988
  0
LINE
  8
Layer0$C$L0
 10
3.840092
 20
-5.266796
 11
3.840092
 21
-5.100988
  0
LINE
  8
Layer0$C$L0
 10
3.480092
 20
-5.266796
 11
3.660092
 21
-5.350731
  0
LINE
  8
Layer0$C$L0
 10
3.660092
 20
-5.350732
 11
3.840092
 21
-5.266796
  0
LINE
  8
Layer0$C$L0
 10
3.480092
 20
-5.266796
 11
3.840092
 21
-5.266796
  0
LINE
  8
Layer0$C$L0
 10
3.480092
 20
-5.166796
 11
3.840092
 21
-5.166796
  0
LINE
  8
Layer0$C$L0
 10
3.509424
 20
-5.066796
 11
3.810759
 21
-5.066796
  0
LINE
  8
Layer0$C$L0
 10
4.324424
 20
-5.066796
 11
4.625759
 21
-5.066796
  0
LINE
  8
Layer0$C$L0
 10
4.295092
 20
-5.166796
 11
4.655092
 21
-5.166796
  0
LINE
  8
Layer0$C$L0
 10
4.295092
 20
-5.266796
 11
4.655092
 21
-5.266796
  0
LINE
  8
Layer0$C$L0
 10
4.475092
 20
-5.350732
 11
4.655092
 21
-5.266796
  0
LINE
  8
Layer0$C$L0
 10
4.295092
 20
-5.266796
 11
4.475092
 21
-5.350731
  0
LINE
  8
Layer0$C$L0
 10
4.655092
 20
-5.266796
 11
4.655092
 21
-5.100988
  0
LINE
  8
Layer0$C$L0
 10
4.295092
 20
-5.266796
 11
4.295092
 21
-5.100988
  0
LINE
  8
Layer0$C$L0
 10
-1.591512
 20
-5.486100
 11
-1.591512
 21
-5.357731
  0
LINE
  8
Layer0$C$L0
 10
-1.791512
 20
-5.486100
 11
-1.791512
 21
-5.357731
  0
LINE
  8
Layer0$C$L0
 10
-1.891512
 20
-5.486101
 11
-1.891512
 21
-5.357731
  0
LINE
  8
Layer0$C$L0
 10
-2.091512
 20
-5.486101
 11
-2.091512
 21
-5.357731
  0
LINE
  8
Layer0$C$L0
 10
-2.070806
 20
-4.991100
 11
-1.912219
 21
-4.991100
  0
LINE
  8
Layer0$C$L0
 10
-2.091512
 20
-5.041101
 11
-1.891512
 21
-5.041101
  0
LINE
  8
Layer0$C$L0
 10
-2.091512
 20
-5.091101
 11
-1.891512
 21
-5.091101
  0
LINE
  8
Layer0$C$L0
 10
-1.770805
 20
-4.991100
 11
-1.612219
 21
-4.991100
  0
LINE
  8
Layer0$C$L0
 10
-1.791512
 20
-5.041100
 11
-1.591512
 21
-5.041100
  0
LINE
  8
Layer0$C$L0
 10
-1.791512
 20
-5.091100
 11
-1.591512
 21
-5.091100
  0
LINE
  8
Layer0$C$L0
 10
-1.770805
 20
-5.336100
 11
-1.612219
 21
-5.336100
  0
LINE
  8
Layer0$C$L0
 10
-2.070806
 20
-5.336100
 11
-1.912219
 21
-5.336100
  0
LINE
  8
Layer0$C$L0
 10
-2.091512
 20
-5.386100
 11
-1.891512
 21
-5.386100
  0
LINE
  8
Layer0$C$L0
 10
-1.791512
 20
-5.386100
 11
-1.591512
 21
-5.386100
  0
LINE
  8
Layer0$C$L0
 10
-1.791512
 20
-5.436100
 11
-1.591512
 21
-5.436100
  0
LINE
  8
Layer0$C$L0
 10
-2.091512
 20
-5.436100
 11
-1.891512
 21
-5.436100
  0
LINE
  8
Layer0$C$L0
 10
-2.091512
 20
-5.486101
 11
-1.891512
 21
-5.486101
  0
LINE
  8
Layer0$C$L0
 10
-1.791512
 20
-5.486100
 11
-1.591512
 21
-5.486100
  0
LINE
  8
Layer0$C$L0
 10
-1.791512
 20
-5.141100
 11
-1.591512
 21
-5.141100
  0
LINE
  8
Layer0$C$L0
 10
-2.091512
 20
-5.141101
 11
-1.891512
 21
-5.141101
  0
LINE
  8
Layer0$C$L0
 10
-2.091512
 20
-5.141101
 11
-1.991512
 21
-5.187732
  0
LINE
  8
Layer0$C$L0
 10
-1.791512
 20
-5.141100
 11
-1.691512
 21
-5.187731
  0
LINE
  8
Layer0$C$L0
 10
-1.791512
 20
-5.486100
 11
-1.691512
 21
-5.532731
  0
LINE
  8
Layer0$C$L0
 10
-2.091512
 20
-5.486101
 11
-1.991512
 21
-5.532732
  0
LINE
  8
Layer0$C$L0
 10
-1.991512
 20
-5.532731
 11
-1.891512
 21
-5.486101
  0
LINE
  8
Layer0$C$L0
 10
-1.691512
 20
-5.532731
 11
-1.591512
 21
-5.486100
  0
LINE
  8
Layer0$C$L0
 10
-1.691512
 20
-5.187731
 11
-1.591512
 21
-5.141100
  0
LINE
  8
Layer0$C$L0
 10
-1.991512
 20
-5.187732
 11
-1.891512
 21
-5.141101
  0
LINE
  8
Layer0$C$L0
 10
-1.591512
 20
-5.141100
 11
-1.591512
 21
-5.012732
  0
LINE
  8
Layer0$C$L0
 10
-1.791512
 20
-5.141100
 11
-1.791512
 21
-5.012732
  0
LINE
  8
Layer0$C$L0
 10
-1.891512
 20
-5.141101
 11
-1.891512
 21
-5.012732
  0
LINE
  8
Layer0$C$L0
 10
-2.091512
 20
-5.141101
 11
-2.091512
 21
-5.012731
  0
ARC
  8
Layer0$C$L0
 10
-1.691512
 20
-5.432731
 40
0.125000
 50
21.235874
 51
336.643632
  0
ARC
  8
Layer0$C$L0
 10
-1.691512
 20
-5.087731
 40
0.125000
 50
11.437184
 51
346.442330
  0
CIRCLE
  8
Layer0$C$L0
 10
-1.991512
 20
-5.432731
 40
0.125000
  0
CIRCLE
  8
Layer0$C$L0
 10
-1.991512
 20
-5.087731
 40
0.125000
  0
ARC
  8
Layer0$C$L0
 10
4.977788
 20
-4.979732
 40
3.000000E-02
 50
270.000001
 51
359.999983
  0
LINE
  8
Layer0$C$L0
 10
4.977788
 20
-5.009731
 11
4.949471
 21
-5.009731
  0
LINE
  8
Layer0$C$L0
 10
5.007788
 20
-4.979732
 11
5.007788
 21
-4.537231
  0
LINE
  8
Layer0$C$L0
 10
4.747092
 20
-5.662731
 11
4.821466
 21
-5.662731
  0
LINE
  8
Layer0$C$L0
 10
4.747092
 20
-5.662731
 11
4.213674
 21
-5.662731
  0
LINE
  8
Layer0$C$L0
 10
4.743890
 20
-5.911731
 11
4.218282
 21
-5.911731
  0
LINE
  8
Layer0$C$L0
 10
4.162794
 20
-4.504731
 11
3.981726
 21
-4.504731
  0
LINE
  8
Layer0$C$L0
 10
4.192788
 20
-4.534176
 11
4.225796
 21
-6.317731
  0
LINE
  8
Layer0$C$L0
 10
3.951731
 20
-4.534209
 11
3.928913
 21
-5.845398
  0
LINE
  8
Layer0$C$L0
 10
4.132375
 20
-4.534599
 11
4.140242
 21
-6.317731
  0
LINE
  8
Layer0$C$L0
 10
4.002575
 20
-6.442731
 11
4.012094
 21
-4.534582
  0
ARC
  8
Layer0$C$L0
 10
3.981726
 20
-4.534732
 40
3.000000E-02
 50
89.999996
 51
179.003016
  0
ARC
  8
Layer0$C$L0
 10
4.162794
 20
-4.534732
 40
3.000000E-02
 50
1.060232
 51
89.999996
  0
ARC
  8
Layer0$C$L0
 10
4.102376
 20
-4.534732
 40
3.000000E-02
 50
0.252780
 51
89.999996
  0
ARC
  8
Layer0$C$L0
 10
4.042094
 20
-4.534732
 40
3.000000E-02
 50
89.999996
 51
179.714148
  0
LINE
  8
Layer0$C$L0
 10
4.743890
 20
-5.846731
 11
4.743890
 21
-6.317731
  0
LINE
  8
Layer0$C$L0
 10
4.743890
 20
-5.846731
 11
4.820549
 21
-5.846731
  0
LINE
  8
Layer0$C$L0
 10
4.817575
 20
-6.442731
 11
4.827095
 21
-4.534582
  0
LINE
  8
Layer0$C$L0
 10
4.947375
 20
-4.534599
 11
4.955794
 21
-6.442731
  0
LINE
  8
Layer0$C$L0
 10
4.743890
 20
-6.317731
 11
4.140242
 21
-6.317731
  0
LINE
  8
Layer0$C$L0
 10
4.955794
 20
-6.442731
 11
4.002575
 21
-6.442731
  0
LINE
  8
Layer0$C$L0
 10
4.766732
 20
-4.979732
 11
4.766732
 21
-4.537231
  0
LINE
  8
Layer0$C$L0
 10
4.796731
 20
-5.009731
 11
4.825048
 21
-5.009731
  0
ARC
  8
Layer0$C$L0
 10
4.796731
 20
-4.979732
 40
3.000000E-02
 50
180.000019
 51
270.000001
  0
LINE
  8
Layer0$C$L0
 10
4.805092
 20
-5.662731
 11
4.805092
 21
-5.009731
  0
LINE
  8
Layer0$C$L0
 10
4.766732
 20
-4.787731
 11
4.197481
 21
-4.787731
  0
CIRCLE
  8
Layer0$C$L0
 10
4.475092
 20
-5.225731
 40
0.219000
  0
LINE
  8
Layer0$C$L0
 10
-2.133152
 20
-4.787731
 11
-1.563901
 21
-4.787731
  0
LINE
  8
Layer0$C$L0
 10
5.626574
 20
-2.706198
 11
6.966574
 21
-2.706198
  0
LINE
  8
Layer0$C$L0
 10
5.626574
 20
-2.333198
 11
6.966574
 21
-2.333198
  0
LINE
  8
Layer0$C$L0
 10
3.261573
 20
-3.530198
 11
4.596573
 21
-3.530198
  0
LINE
  8
Layer0$C$L0
 10
3.261573
 20
-2.820198
 11
4.596573
 21
-2.820198
  0
LINE
  8
Layer0$C$L0
 10
6.966574
 20
-2.950198
 11
10.461575
 21
-2.950198
  0
LINE
  8
Layer0$C$L0
 10
5.626574
 20
-3.080198
 11
6.966574
 21
-3.080198
  0
LINE
  8
Layer0$C$L0
 10
1.421573
 20
-3.080198
 11
5.626574
 21
-3.080198
  0
LINE
  8
Layer0$C$L0
 10
3.261573
 20
-2.520198
 11
4.596573
 21
-2.520198
  0
LINE
  8
Layer0$C$L0
 10
3.261573
 20
-2.240198
 11
4.596573
 21
-2.240198
  0
LINE
  8
Layer0$C$L0
 10
1.421573
 20
-1.960198
 11
4.596573
 21
-1.960198
  0
LINE
  8
Layer0$C$L0
 10
6.966574
 20
-3.940198
 11
6.966574
 21
-1.120198
  0
LINE
  8
Layer0$C$L0
 10
5.626574
 20
-3.940198
 11
5.626574
 21
-1.680198
  0
LINE
  8
Layer0$C$L0
 10
4.596573
 20
-3.940198
 11
4.596573
 21
-1.700198
  0
LINE
  8
Layer0$C$L0
 10
1.421573
 20
-3.940198
 11
10.461575
 21
-3.940198
  0
LINE
  8
Layer0$C$L0
 10
3.261573
 20
-3.940198
 11
3.261573
 21
-1.680198
  0
LINE
  8
Layer0$C$L0
 10
1.421573
 20
-3.940198
 11
1.421573
 21
-1.120198
  0
LINE
  8
Layer0$C$L0
 10
2.226573
 20
-3.940198
 11
2.226573
 21
-1.120198
  0
LINE
  8
Layer0$C$L0
 10
1.421573
 20
-1.120198
 11
10.461575
 21
-1.120198
  0
LINE
  8
Layer0$C$L0
 10
2.226573
 20
-1.400198
 11
6.966574
 21
-1.400198
  0
LINE
  8
Layer0$C$L0
 10
2.226573
 20
-1.680198
 11
10.461575
 21
-1.680198
  0
LINE
  8
Layer0$C$L0
 10
4.596573
 20
-1.960198
 11
10.461575
 21
-1.960198
  0
LINE
  8
Layer0$C$L0
 10
5.626574
 20
-3.380198
 11
6.966574
 21
-3.380198
  0
LINE
  8
Layer0$C$L0
 10
8.016571
 20
-3.940198
 11
8.016571
 21
-1.680198
  0
LINE
  8
Layer0$C$L0
 10
9.206573
 20
-3.940198
 11
9.206573
 21
-1.120198
  0
LINE
  8
Layer0$C$L0
 10
5.626574
 20
-3.660198
 11
6.966574
 21
-3.660198
  0
LINE
  8
Layer0$C$L0
 10
10.461575
 20
-3.940198
 11
10.461575
 21
-1.120198
  0
TEXT
  8
Layer0$C$L0
 10
-1.488921
 20
-8.957026
 40
0.125000
  1
ALLOY-TIN PLATED.
 72
     5
 11
0.602655
 21
-8.957026
  0
TEXT
  8
Layer0$C$L0
 10
-3.053326
 20
-8.728884
 40
0.125000
  1
CONNECTOR-ALUMINUM OR COPPER
 72
     5
 11
0.413250
 21
-8.728884
  0
TEXT
  8
Layer0$C$L0
 10
-3.501462
 20
-8.182971
 40
0.125000
  1
1. MATL COMPOSITION AND RATING:
 72
     5
 11
0.340113
 21
-8.182971
  0
TEXT
  8
Layer0$C$L0
 10
-3.311356
 20
-9.200297
 40
0.125000
  1
NOTES: UNLESS OTHERWISE SPECIFIED
 72
     5
 11
0.780220
 21
-9.200297
  0
LINE
  8
Layer0$C$L0
 10
-2.171512
 20
-5.662731
 11
-2.171512
 21
-5.009731
  0
ARC
  8
Layer0$C$L0
 10
-2.163152
 20
-4.979732
 40
3.000000E-02
 50
270.000001
 51
359.999983
  0
LINE
  8
Layer0$C$L0
 10
-2.163152
 20
-5.009731
 11
-2.191469
 21
-5.009731
  0
LINE
  8
Layer0$C$L0
 10
-2.133152
 20
-4.979732
 11
-2.133152
 21
-4.537231
  0
LINE
  8
Layer0$C$L0
 10
-2.322214
 20
-6.442731
 11
-1.507214
 21
-6.442731
  0
LINE
  8
Layer0$C$L0
 10
-2.110310
 20
-6.317731
 11
-1.506662
 21
-6.317731
  0
LINE
  8
Layer0$C$L0
 10
-2.313771
 20
-4.529088
 11
-2.322214
 21
-6.442731
  0
LINE
  8
Layer0$C$L0
 10
-2.183995
 20
-6.442731
 11
-2.193524
 21
-4.532684
  0
LINE
  8
Layer0$C$L0
 10
-2.110310
 20
-5.846731
 11
-2.186969
 21
-5.846731
  0
LINE
  8
Layer0$C$L0
 10
-2.110310
 20
-5.846731
 11
-2.110310
 21
-6.317731
  0
LINE
  8
Layer0$C$L0
 10
-1.295310
 20
-5.846731
 11
-1.371969
 21
-5.846731
  0
ARC
  8
Layer0$C$L0
 10
-1.408515
 20
-4.534732
 40
3.000000E-02
 50
0.285852
 51
90.000003
  0
ARC
  8
Layer0$C$L0
 10
-1.468796
 20
-4.534732
 40
3.000000E-02
 50
90.000003
 51
179.747220
  0
ARC
  8
Layer0$C$L0
 10
-1.529214
 20
-4.534732
 40
3.000000E-02
 50
90.000003
 51
178.939768
  0
ARC
  8
Layer0$C$L0
 10
-1.348147
 20
-4.534732
 40
3.000000E-02
 50
0.996984
 51
90.000003
  0
LINE
  8
Layer0$C$L0
 10
-1.368995
 20
-6.442731
 11
-1.378515
 21
-4.534582
  0
LINE
  8
Layer0$C$L0
 10
-1.498796
 20
-4.534599
 11
-1.506662
 21
-6.317731
  0
LINE
  8
Layer0$C$L0
 10
-1.318151
 20
-4.534209
 11
-1.295333
 21
-5.845398
  0
LINE
  8
Layer0$C$L0
 10
-1.559209
 20
-4.534176
 11
-1.592217
 21
-6.317731
  0
LINE
  8
Layer0$C$L0
 10
-1.507214
 20
-6.442731
 11
-1.368995
 21
-6.442731
  0
LINE
  8
Layer0$C$L0
 10
-1.529214
 20
-4.504731
 11
-1.348147
 21
-4.504731
  0
LINE
  8
Layer0$C$L0
 10
-2.110310
 20
-5.911731
 11
-1.584703
 21
-5.911731
  0
LINE
  8
Layer0$C$L0
 10
-2.113512
 20
-5.662731
 11
-1.580094
 21
-5.662731
  0
LINE
  8
Layer0$C$L0
 10
-2.113512
 20
-5.662731
 11
-2.187887
 21
-5.662731
  0
LINE
  8
Layer0$C$L0
 10
-2.374208
 20
-4.979732
 11
-2.374208
 21
-4.537231
  0
LINE
  8
Layer0$C$L0
 10
-2.344209
 20
-5.009731
 11
-2.315892
 21
-5.009731
  0
ARC
  8
Layer0$C$L0
 10
-2.344209
 20
-4.979732
 40
3.000000E-02
 50
180.000019
 51
270.000001
  0
ENDSEC
  0
EOF
